2 сезон

iTunes

MVO

1

2 сезон

iTunes

iTunes

1 сезон

RePack

30

Новинка

ВАЖНО

ИГРА 18+

pack

RePack

MK11
pack

Легкие деньги

RePack

jed

RePack

fifa19

RePack

RDR2

RePack

NEED FOR SPEED™ PAYBACK

4 сезон

9 сезон

Бесстыжие 9 сезон

Все сериалы

все сериалы на PB.wtf

RePack

FAR CRY 5

Anonymous, добрый вечер, мы не успеваем собрать деньги на оплату серверов за декабрь и январь, помогите нам пожалуйста в это трудное время. В качестве благодарности мы отключим Вам всю рекламу на сайте (укажите свой ник в строку Ваше имя)!

×
  
Magnet ссылка

Красная Линия / Red Line (Роберт Кирбюсон) [2013 г., Триллер, DVDRip, Профессиональный двухголосый] pb.wtf

Красная Линия через торрент pb.wtf

Размер: 1.27 GB | Добавлен: 7 лет 4 мес. назад | Торрент скачан:371 раз
Скачать  

07-09-2013 01:09 Красная Линия Скачать торрент  

Красная Линия / Red LineГод выпуска: 2013
Страна: США,Yellow Line Studio
Жанр: Триллер
Продолжительность: 01:22:56
Перевод: Профессиональный двухголосый
Субтитры: Нет

Режиссер: Роберт Кирбюсон

В ролях: Николь Гэйл Андерсон, Джон Биллингсли, Кунал Шарма, Кевин Сайзмор, Джозеф Уильямсон, Марк Сауль, Кина Фергюсон, Ким Джексон, Анна Маганини,

После теракта 11 сентября против США было предпринято множество попыток проведения терактов. Самые уязвимые цели – поезда и станции метро, где проверки невозможны из-за большой протяженности железных дорог и громадного количества пассажиров. В тот день, целью атаки стал поезд подземки Лос-Анджелеса. Но как спастись выжившим пассажирам, когда среди них уцелевший террорист, приберёгший ещё одну бомбу…

Качество: DVDRip
Формат: AVI
Видео кодек: XviD
Аудио кодек: AC3
Видео: 1799 Кбит/сек, 720*352 (2,045), в 23,976 кадра/сек, (XviD)
Аудио: 384 Кбит/сек, 48,0 КГц, 16 бит, 6 каналов, AC-3


Общее
Кол-во : 284
Кол-во потоков такого типа : 1
Тип потока : General
Тип потока : Общее
Идентификатор типа потока : 0
Inform : AVI: 1,27 Гбайт, 1 ч. 22 м.
Кол-во видеопотоков : 1
Кол-во аудиопотоков : 1
Video_Format_List : MPEG-4 Visual
Video_Format_WithHint_List : MPEG-4 Visual (XviD)
Видеокодеки : XviD
Audio_Format_List : AC-3
Audio_Format_WithHint_List : AC-3
Аудиокодеки : AC3
Полное имя : H:ТОРРЕНТЫЛиния.avi
Имя папки : H:ТОРРЕНТЫ
Имя файла : Линия
Расширение : avi
Формат : AVI
Формат : AVI
Формат/Информация : Audio Video Interleave
Формат/Используется в : avi
Коммерческое название : AVI
Интернет-тип носителя : video/vnd.avi
Чередующаяся : Yes
Кодек : AVI
Кодек : AVI
Кодек/Информация : Audio Video Interleave
Кодек/Используется в : avi
Размер файла : 1363525632
Размер файла : 1,27 Гбайт
Размер файла : 1 Гбайт
Размер файла : 1,3 Гбайт
Размер файла : 1,27 Гбайт
Размер файла : 1,270 Гбайт
Продолжительность : 4976560
Продолжительность : 1 ч. 22 м.
Продолжительность : 1 ч. 22 м. 56 с. 560 мс.
Продолжительность : 1 ч. 22 м.
Продолжительность : 01:22:56.560
Общий поток : 2191917
Общий поток : 2192 Кбит/сек
Размер потока : 5798752
Размер потока : 5,53 Мбайт (0%)
Размер потока : 6 Мбайт
Размер потока : 5,5 Мбайт
Размер потока : 5,53 Мбайт
Размер потока : 5,530 Мбайт
Размер потока : 5,53 Мбайт (0%)
Пропорции потока : 0.00425
Дата файла : UTC 2013-09-07 00:33:18.276
Дата файла (местная) : 2013-09-07 07:33:18.276
Дата изменения файла : UTC 2013-09-07 00:36:35.510
Дата изменения файла (местная) : 2013-09-07 07:36:35.510
Программа кодирования : VirtualDubMod 1.5.10.3 | www.virtualdub-fr.org || (build 2550/release)
Библиотека кодирования : VirtualDubMod build 2550/release
Библиотека кодирования : VirtualDubMod build 2550/release

Видео
Кол-во : 263
Кол-во потоков такого типа : 1
Тип потока : Video
Тип потока : Видео
Идентификатор типа потока : 0
StreamOrder : 0
Inform : 1799 Кбит/сек, 720*352 (2,045), в 23,976 кадра/сек, MPEG-4 Visual (XviD) (Advanced Simple@L5) (BVOP1)
Идентификатор : 0
Идентификатор : 0
Формат : MPEG-4 Visual
Коммерческое название : MPEG-4 Visual
Профиль формата : Advanced Simple@L5
Настройки формата : BVOP1
Параметр BVOP формата : 1
Параметр BVOP формата : 1
Параметр QPel формата : No
Параметр QPel формата : Нет
Параметр GMC формата : 0
Параметр GMC формата : Без точки перехода
Параметр матрицы формата : Default (H.263)
Параметр матрицы формата : Default (H.263)
Интернет-тип носителя : video/MP4V-ES
Идентификатор кодека : XVID
Идентификатор кодека/Подсказка : XviD
Идентификатор кодека/Ссылка : http://mediaarea.net/XVID
Кодек : XVID
Кодек : XviD
Кодек/Семейство : MPEG-4V
Кодек/Информация : XviD project
Кодек/Ссылка : http://www.xvid.org/Downloads.15.0.html
Кодек/CC : XVID
Профиль кодека : Advanced Simple@L5
Настройки кодека : BVOP
Параметр пакетного потока данных кодека : No
Параметр BVOP кодека : Yes
Параметр QPel кодека : No
Параметр GMC кодека : 0
Параметр GMC кодека : Без точки перехода
Параметр матрицы кодека : Default (H.263)
Продолжительность : 4976555
Продолжительность : 1 ч. 22 м.
Продолжительность : 1 ч. 22 м. 56 с. 555 мс.
Продолжительность : 1 ч. 22 м.
Продолжительность : 01:22:56.555
Битрейт : 1798595
Битрейт : 1799 Кбит/сек
Ширина : 720
Ширина : 720 пикселей
Высота : 352
Высота : 352 пикселя
Пропорции пикселя : 1.000
Соотношение сторон : 2.045
Соотношение сторон : 2,045
Частота кадров : 23.976
Частота кадров : 23,976 кадра/сек
Счётчик кадров : 119318
Разрешение : 8
Разрешение : 8 бит
Колориметрия : 4:2:0
Цветовое пространство : YUV
Субдискретизация насыщенности : 4:2:0
Битовая глубина : 8
Битовая глубина : 8 бит
Тип развёртки : Progressive
Тип развёртки : Прогрессивная
Переплетение : PPF
Переплетение : Прогрессивная
Метод сжатия : Lossy
Метод сжатия : С потерями
Бит/(Пиксели*Кадры) : 0.296
Задержка : 0
Задержка : 00:00:00.000
Размер потока : 1118852005
Размер потока : 1,04 Гбайт (82%)
Размер потока : 1 Гбайт
Размер потока : 1,0 Гбайт
Размер потока : 1,04 Гбайт
Размер потока : 1,042 Гбайт
Размер потока : 1,04 Гбайт (82%)
Пропорции потока : 0.82056
Библиотека кодирования : XviD0050
Библиотека кодирования : XviD 1.2.1 (UTC 2008-12-04)
Библиотека кодирования/Имя : XviD
Библиотека кодирования/Version : 1.2.1
Библиотека кодирования/Дата : UTC 2008-12-04

Аудио
Кол-во : 252
Кол-во потоков такого типа : 1
Тип потока : Audio
Тип потока : Аудио
Идентификатор типа потока : 0
StreamOrder : 1
Inform : 384 Кбит/сек, 48,0 КГц, 16 бит, 6 каналов, AC-3
Идентификатор : 1
Идентификатор : 1
Формат : AC-3
Формат/Информация : Audio Coding 3
Коммерческое название : AC-3
Расширение режима : CM (complete main)
Параметр Endianness формата : Big
Идентификатор кодека : 2000
Кодек : AC3
Кодек : AC3
Кодек/Семейство : AC3
Кодек/Информация : Dolby AC3
Кодек/CC : 2000
Продолжительность : 4976560
Продолжительность : 1 ч. 22 м.
Продолжительность : 1 ч. 22 м. 56 с. 560 мс.
Продолжительность : 1 ч. 22 м.
Продолжительность : 01:22:56.560
Вид битрейта : CBR
Вид битрейта : Постоянный
Битрейт : 384000
Битрейт : 384 Кбит/сек
Каналы : 6
Каналы : 6 каналов
Расположение каналов : Front: L C R, Side: L R, LFE
Расположение каналов : 3/2/0.1
Частота : 48000
Частота : 48,0 КГц
Количество образцов : 238874880
Разрешение : 16
Разрешение : 16 бит
Битовая глубина : 16
Битовая глубина : 16 бит
Метод сжатия : Lossy
Метод сжатия : С потерями
Задержка : 0
Задержка : 00:00:00.000
Задержка в оригинале : Stream
Задержка в оригинале : 'Сырой' поток
Задержка видео : 0
Задержка видео : 0
Размер потока : 238874875
Размер потока : 228 Мбайт (18%)
Размер потока : 228 Мбайт
Размер потока : 228 Мбайт
Размер потока : 228 Мбайт
Размер потока : 227,8 Мбайт
Размер потока : 228 Мбайт (18%)
Пропорции потока : 0.17519
Выравнивание : Split
Выравнивание : Разделение по промежуткам
Продолжительность промежутка : 1.00
Продолжительность промежутка : 42
Продолжительность промежутка : 42 мс. (1,00 видеокадр)
Время предзагрузки промежутка : 500
Время предзагрузки промежутка : 500 мс.
bsid : 6
dialnorm : -27
dialnorm/String : -27 dB
compr : -6.88
compr/String : -6.88 dB
dynrng : -5.49
dynrng/String : -5.49 dB
acmod : 7
lfeon : 1
dialnorm_Average : -27
dialnorm_Average/String : -27 dB
dialnorm_Minimum : -27
dialnorm_Minimum/String : -27 dB
dialnorm_Maximum : -27
dialnorm_Maximum/String : -27 dB
dialnorm_Count : 404
compr_Average : -0.82
compr_Average/String : -0.82 dB
compr_Minimum : -6.88
compr_Minimum/String : -6.88 dB
compr_Maximum : 2.77
compr_Maximum/String : 2.77 dB
compr_Count : 404
dynrng_Average : -0.52
dynrng_Average/String : -0.52 dB
dynrng_Minimum : -5.49
dynrng_Minimum/String : -5.49 dB
dynrng_Maximum : 3.15
dynrng_Maximum/String : 3.15 dB
dynrng_Count : 404

pb.wtf



Скачать Красная Линия через торрент http://i054.radikal.ru/1309/cb/8eb4b3e8bdb2.jpg Скачать фильм Красная Линия через торрент бесплантно в хорошем качестве В ролях: Николь Гэйл Андерсон, Джон Биллингсли, Кунал Шарма, Кевин Сайзмор, Джозеф Уильямсон, Марк Сауль, Кина Фергюсон, Ким Джексон, Анна ... 10 10 14
Info! Золотая раздача, скачанное не засчитывается.
Торрент: Зарегистрирован [2013-09-07 01:09] · скачан: 371 раз
Статус: √ проверено
Размер: 1.27 GB
Как cкачать? Как скачать Красная Линия через торрент | UTorrent

% Раздел Тема Автор DL S | L
Зарубежные сериалы [ 22.61 GB ] Красная линия / The Red Line / Сезон: 1 / Серии: 1-8 из 8 [2019 WEB-DL 1080p] [MVO] killermax2013 Скачать
1 | 0
Фильмы [HD 720p, 1080p] (Хороший звук DUB, MVO) [ 4.7 GB ] Тонкая красная линия / The Thin Red Line [1998 Военный BDRip 1080p HEVC 10bit ] ADVOKAT69 Скачать
1 | 0
Фильмы до 2000 г. [ 2.91 GB ] Тонкая красная линия / Thin Red Line The [1998 военный BDRip] feldeger Скачать
1 | 0
Фильмы до 2000 г. [ 1.46 GB ] Тонкая красная линия / The Thin Red Line [1998 военный BDRip DUB лицензия] Anonymous Скачать
1 | 0
Фильмы [HD 720p, 1080p] (Хороший звук DUB, MVO) [ 10.47 GB ] Тонкая красная линия / The Thin Red Line [1998 военный BDRip 720p + MVO+AVO _denis_100 Скачать
1 | 0
Фильмы (Blu-ray, BD-Remux, HDDVD) [ 48.35 GB ] Тонкая красная линия / The Thin Red Line [1998 военная BDRemux ] MVO + AVO Ворон Скачать
1 | 0
Фильмы 2013 [DVDrip, WEB-DLRip, HDrip] [ 700 MB ] Красная линия / Red Line [2013 WEB-DLRip Ворон Скачать
1 | 0

28-11-2019 20:33  

Отключить всю рекламу на сайте

    Дорогой пользователь! Огромная просьба, поблагодарите релизера, оцените раздачу и оставьте свои комментарий, если Вы скачали Красная Линия через торрент бесплатно! Внесите свою лепту в развитие PiratBit!
    Комментировать посты могут только пользователи прошедшие не сложную регистрацию
    Показать сообщения:    

    Красная Линия через торрент
    Скачать бесплатно Красная Линия
    Красная Линия скачать торрент
    Красная Линия смотреть онлайн
    Cкачать фильм Красная Линия бесплатно
    Красная Линия скачать торрент в хорошем качестве
    Красная Линия смотреть онлайн бесплатно в хорошем качестве


    Вы не можете начинать темы
    Вы не можете отвечать на сообщения
    Вы не можете редактировать свои сообщения
    Вы не можете удалять свои сообщения
    Вы не можете голосовать в опросах
    Вы не можете прикреплять файлы к сообщениям
    Вы можете скачивать файлы