2 сезон

iTunes

1 сезон

1

iTunes

iTunes

iTunes

1 сезон

RePack

30

ИГРА 18+

pack

ВАЖНО

!!Акция!!

Alien_RageХит недели

RePack

MK11
pack

Забери бонус

RePack

jed

!!Акция!!

Alien_Rage

RePack

fifa19

RePack

Assassins Creed: Odyssey

RePack

NEED FOR SPEED™ PAYBACK

4 сезон

9 сезон

Бесстыжие 9 сезон

Все сериалы

все сериалы на PB.wtf

RePack

FAR CRY 5
  

Одним меньше / Dead Man Down (Нильс Арден Оплев / Niels Arden Oplev) [2013, США, триллер, драма, криминал, BDRip 720p, Дубляж [лицензия] pb.wtf

Одним меньше через торрент pb.wtf

Размер: 5.03 GB | Добавлен: 7 лет 1 мес. назад | Торрент скачан:422 раза
Скачать  

07-09-2013 11:30 Одним меньше Скачать торрент  

Одним меньше / Dead Man Down

«Время собирать камни»

  • Год выпуска:2013
  • Страна:США
  • Жанр:триллер, драма, криминал, боевик

  • Продолжительность: 01:57:47
  • Перевод:Профессиональный (полное дублирование) [лицензия]

  • Субтитры: English
    • Режиссер:Нильс Арден Оплев / Niels Arden Oplev
    • Сценарий: Дж. Х. Уаймен / J.H. Wyman
    • Продюсер: Дж. Х. Уаймен / J.H. Wyman, Нил Х. Мориц / Neal H. Moritz, Бэйли Конуэй / Bailey Conway, Стивен Сквилланте / Steven Squillante, Джозеф Золфо / Joseph Zolfo

  • В ролях:Колин Фаррелл (Victor), Нуми Рапас (Beatrice), Терренс Ховард (Alphonse), Доминик Купер (Darcy), Изабель Юппер (Valentine Louzon), Луис Да Силва мл. (Terry), Стью Беннетт (Kilroy), Фрэнки Джи (Luco), Деклан Мулвей (Goff), Джон Ченатьемпо (Charles), Лерой Уилсон мл. (Blotto), Майлс Хамфус (Lance)
    • Описание:
      История человека по имени Виктор, он правая рука лидера преступной группировки из Нью-Йорка. Виктор неспроста оказался в криминальном синдикате: мафия уничтожила его семью, поэтому он хочет отомстить. Об этом узнает загадочная Беатрис, соблазняет его и шантажирует. Однако у героев только одна цель в жизни - месть. И она приведет их к кровавой развязке.

  • Рейтинг
    kinopoisk.ru: 6.711 (6567)
    imdb.com: 6.50 (26 280)
    MPAA: R - Лицам до 17 лет обязательно присутствие взрослого
    • Качество:BDRip 720p
    • Формат:MKV
    • Видео кодек: AVC
    • Аудио кодек:DTS/AC3
    • Видео: AVC, 1280x534 (2.40:1), 4222 kbps, 23,976 fps, 0,258 bpp
    • Аудио №1: AC3 / 5.1 / 48 kHz / 256 kbps / 16 bit
      Аудио №2: английский / DTS / 5.1 / 48 kHz / 1510 kbps / 24 bit

    General
    Unique ID : 197332616928230033835359152142713559166 (0x9474E12D1D39471CA4DC37AEE28F187E)
    Complete name : D:ТорентыOdnim.menshe.2013.D.BDRip.720p.mkv
    Format : Matroska
    Format version : Version 2
    File size : 5.03 GiB
    Duration : 1h 57mn
    Overall bit rate : 6 110 Kbps
    Encoded date : UTC 2013-09-07 05:32:34
    Writing application : mkvmerge v5.7.0 ('The Whirlwind') built on Jul 8 2012 20:08:51
    Writing library : libebml v1.2.3 + libmatroska v1.3.0

    Video
    ID : 1
    Format : AVC
    Format/Info : Advanced Video Codec
    Format profile : High@L4.1
    Format settings, CABAC : Yes
    Format settings, ReFrames : 12 frames
    Muxing mode : Header stripping
    Codec ID : V_MPEG4/ISO/AVC
    Duration : 1h 57mn
    Bit rate : 4 223 Kbps
    Width : 1 280 pixels
    Height : 534 pixels
    Display aspect ratio : 2.40:1
    Frame rate : 23.976 fps
    Color space : YUV
    Chroma subsampling : 4:2:0
    Bit depth : 8 bits
    Scan type : Progressive
    Bits/(Pixel*Frame) : 0.258
    Stream size : 3.47 GiB (69%)
    Writing library : x264 core 132 r2323+704+51 d571b1c tMod [8-bit@4:2:0 X86_64]
    Encoding settings : cabac=1 / ref=12 / deblock=1:-3:-3 / analyse=0x3:0x113 / me=umh / subme=11 / psy=1 / fade_compensate=0.00 / psy_rd=1.05:0.00 / mixed_ref=1 / me_range=32 / chroma_me=1 / trellis=2 / 8x8dct=1 / cqm=0 / deadzone=21,11 / fast_pskip=0 / chroma_qp_offset=-2 / threads=36 / lookahead_threads=4 / sliced_threads=0 / nr=0 / decimate=0 / interlaced=0 / bluray_compat=0 / constrained_intra=0 / fgo=0 / bframes=8 / b_pyramid=2 / b_adapt=2 / b_bias=0 / direct=3 / weightb=1 / open_gop=0 / weightp=2 / keyint=240 / keyint_min=24 / scenecut=40 / intra_refresh=0 / rc=crf / mbtree=0 / crf=17.0000 / qcomp=0.70 / qpmin=0 / qpmax=69 / qpstep=4 / ip_ratio=1.20 / pb_ratio=1.20 / aq=4:0.85 / aq-sensitivity=10.00 / aq-factor=1.00:1.00:1.00 / aq2=0 / aq3=0
    Language : English
    Default : Yes
    Forced : No

    Audio #1
    ID : 2
    Format : AC-3
    Format/Info : Audio Coding 3
    Mode extension : CM (complete main)
    Muxing mode : Header stripping
    Codec ID : A_AC3
    Duration : 1h 57mn
    Bit rate mode : Constant
    Bit rate : 256 Kbps
    Channel(s) : 6 channels
    Channel positions : Front: L C R, Side: L R, LFE
    Sampling rate : 48.0 KHz
    Bit depth : 16 bits
    Compression mode : Lossy
    Stream size : 216 MiB (4%)
    Default : Yes
    Forced : No

    Audio #2
    ID : 3
    Format : DTS
    Format/Info : Digital Theater Systems
    Muxing mode : Header stripping
    Codec ID : A_DTS
    Duration : 1h 57mn
    Bit rate mode : Constant
    Bit rate : 1 510 Kbps
    Channel(s) : 6 channels
    Channel positions : Front: L C R, Side: L R, LFE
    Sampling rate : 48.0 KHz
    Bit depth : 24 bits
    Compression mode : Lossy
    Stream size : 1.24 GiB (25%)
    Language : English
    Default : No
    Forced : No

    Text
    ID : 4
    Format : PGS
    Muxing mode : zlib
    Codec ID : S_HDMV/PGS
    Codec ID/Info : The same subtitle format used on BDs/HD-DVDs
    Language : English
    Default : Yes
    Forced : No

    • Стью Беннетт выступает в качестве профессионального рестлера под именем Уэйд Барретт. World Wrestling Entertainment (WWE) является одним из продюсеров этого фильма.

    © Оформление by Vetalpb.wtf



  • Скачать Одним меньше через торрент http://i2.imageban.ru/out/2013/09/07/6e35b012ab11b59b35f819e526c774e5.jpg Скачать фильм Одним меньше через торрент бесплантно в хорошем качестве Описание:История человека по имени Виктор, он правая рука лидера преступной группировки из Нью-Йорка. Виктор неспроста оказался в ... 10 10 14
    Info! Золотая раздача, скачанное не засчитывается.
    Торрент: Зарегистрирован [2013-09-07 11:30] · скачан: 422 раз
    Статус: √ проверено
    Размер: 5.03 GB
    Как cкачать? Как скачать Одним меньше через торрент | qTorrent

    % Раздел Тема Автор DL S | L
    Фильмы [HD 720p, 1080p] (Хороший звук DUB, MVO) [ 13.75 GB ] Одним меньше / Dead Man Down [2013 BDRip1080p by msltel] DUB AVO msltel Скачать
    1 | 0
    Фильмы [HD 720p, 1080p] (Хороший звук DUB, MVO) [ 4.89 GB ] Одним меньше / Dead Man Down [2013 BDRip720p by msltel] DUB AVO msltel Скачать
    1 | 0
    Фильмы 2013 [DVDrip, WEB-DLRip, HDrip] [ 1.35 GB ] Одним меньше / Dead Man Down [2013 HDRip] DUB Ворон Скачать
    1 | 0
    Фильмы 2013 [DVDrip, WEB-DLRip, HDrip] [ 2.03 GB ] Одним меньше / Dead Man Down [ 2013 BDRip-AVC ] МАКС1 Скачать
    1 | 0
    Фильмы [HD 720p, 1080p] (Хороший звук DUB, MVO) [ 13.22 GB ] Одним меньше / Dead Man Down [2013 BDRip 1080p DUB AVO] лисяра Скачать
    1 | 0
    Фильмы 2013 [DVDrip, WEB-DLRip, HDrip] [ 734 MB ] Одним меньше / Dead Man Down [2013 HDRip-AVC] Dub () sokol_ok Скачать
    2 | 0
    Фильмы 2013 [DVDrip, WEB-DLRip, HDrip] [ 1.47 GB ] Одним меньше / Dead Man Down [2013 HDRip-AVC] Dub () + Eng sokol_ok Скачать
    2 | 0

    28-11-2019 20:33  

    Отключить всю рекламу на сайте

      Дорогой пользователь! Огромная просьба, поблагодарите релизера, оцените раздачу и оставьте свои комментарий, если Вы скачали Одним меньше через торрент бесплатно! Внесите свою лепту в развитие PiratBit!
      Комментировать посты могут только пользователи прошедшие не сложную регистрацию
      Показать сообщения:    

      Одним меньше через торрент
      Скачать бесплатно Одним меньше
      Одним меньше скачать торрент
      Одним меньше смотреть онлайн
      Cкачать фильм Одним меньше бесплатно
      Одним меньше скачать торрент в хорошем качестве
      Одним меньше смотреть онлайн бесплатно в хорошем качестве


      Вы не можете начинать темы
      Вы не можете отвечать на сообщения
      Вы не можете редактировать свои сообщения
      Вы не можете удалять свои сообщения
      Вы не можете голосовать в опросах
      Вы не можете прикреплять файлы к сообщениям
      Вы можете скачивать файлы