Ссылка на приватное зеркало нашего сайта всего за 1$. Внимание количество ограничено!!!

2 сезон

iTunes

1 сезон

1

iTunes

iTunes

iTunes

1 сезон

RePack

30

ИГРА 18+

pack

ВАЖНО

!!Акция!!

Alien_RageХит недели

RePack

MK11
pack

Забери бонус

RePack

jed

!!Акция!!

Alien_Rage

RePack

fifa19

RePack

Assassins Creed: Odyssey

RePack

NEED FOR SPEED™ PAYBACK

4 сезон

9 сезон

Бесстыжие 9 сезон

Все сериалы

все сериалы на PB.wtf

RePack

FAR CRY 5
  

Назад в будущее 2 / Back to the Future Part II (Роберт Земекис) [1989 г., фантастика, боевик, комедия, приключения, BDRip 1080p, Дубляж + Оригинал] pb.wtf

Назад в будущее 2 через торрент pb.wtf

Размер: 7.76 GB | Добавлен: 7 лет 1 мес. назад | Торрент скачан:96 раз
Скачать  

07-09-2013 15:52 Назад в будущее 2 Скачать торрент  

Назад в будущее 2 / Back to the Future Part II
Год выпуска: 1989
Страна: США
Жанр: фантастика, боевик, комедия, приключения,
Продолжительность: 01:47:59
Перевод: Дубляж + Оригинал
Субтитры: Русские, Английские

Режиссер: Роберт Земекис

В ролях: Майкл Дж. Фокс, Кристофер Ллойд, Лиа Томпсон, Томас Ф. Уилсон, Элизабет Шу, Джеймс Толкан, Джеффри Вайсман, Кэйси Семашко, Билли Зейн, Дж.Дж. Коэн,

Описание: Продолжение фантастической истории о приключениях американского подростка во времени. На этот раз с помощью модернизированной Доком машины времени Марти из 80-х попадает в будущее.
Дети Марти в беде, и их надо выручать. Приходится повозиться со злодеем…

Качество: BDRip 1080p
Формат: MKV
Видео кодек: H.264
Аудио кодек: AC3
Видео: (1920x1040), 9010 Kbps, 23.976 fps
Аудио#1: AC-3, 6 ch, 640 kbps 48,0 КГц(Rus)
Аудио#2: AC-3, 6 ch, 640 kbps 48,0 КГц(Eng)

Общее
Уникальный идентификатор : 179796198346186710848191278958719501204 (0x87437CFC85D06286B1F23A83087B8394)
Полное имя : Назад в будущее 2.1989.BDRip.1080p.Rus.Eng.mkv
Формат : Matroska
Версия формата : Version 4 / Version 2
Размер файла : 7,76 Гбайт
Продолжительность : 1 ч. 47 м.
Общий поток : 10,3 Мбит/сек
Название фильма : Назад в будущее 2.1989
Дата кодирования : UTC 2010-02-22 21:41:31
Программа кодирования : mkvmerge v5.8.0 ('No Sleep / Pillow') built on Nov 13 2012 19:43:22
Библиотека кодирования : libebml v1.3.0 + libmatroska v1.4.0

Видео
Идентификатор : 1
Формат : AVC
Формат/Информация : Advanced Video Codec
Профиль формата : High@L4.1
Параметр CABAC формата : Да
Параметр ReFrames формата : 4 кадра
Идентификатор кодека : V_MPEG4/ISO/AVC
Продолжительность : 1 ч. 47 м.
Битрейт : 9010 Кбит/сек
Ширина : 1920 пикселей
Высота : 1040 пикселей
Соотношение сторон : 1,85:1
Режим частоты кадров : Постоянный
Частота кадров : 23,976 кадра/сек
Цветовое пространство : YUV
Субдискретизация насыщенности : 4:2:0
Битовая глубина : 8 бит
Тип развёртки : Прогрессивная
Бит/(Пиксели*Кадры) : 0.188
Размер потока : 6,64 Гбайт (86%)
Заголовок : Rip by Boriy
Библиотека кодирования : x264 core 129 r2230 1cffe9f
Настройки программы : cabac=1 / ref=4 / deblock=1:0:0 / analyse=0x3:0x113 / me=umh / subme=10 / psy=1 / psy_rd=1.00:0.10 / mixed_ref=1 / me_range=32 / chroma_me=1 / trellis=2 / 8x8dct=1 / cqm=0 / deadzone=21,11 / fast_pskip=0 / chroma_qp_offset=-3 / threads=12 / lookahead_threads=2 / sliced_threads=0 / nr=0 / decimate=0 / interlaced=0 / bluray_compat=0 / constrained_intra=0 / bframes=5 / b_pyramid=2 / b_adapt=2 / b_bias=0 / direct=3 / weightb=1 / open_gop=0 / weightp=2 / keyint=240 / keyint_min=23 / scenecut=40 / intra_refresh=0 / rc=2pass / mbtree=0 / bitrate=9010 / ratetol=1.0 / qcomp=0.60 / qpmin=0 / qpmax=69 / qpstep=4 / cplxblur=20.0 / qblur=0.5 / ip_ratio=1.40 / pb_ratio=1.30 / aq=1:0.80
Язык : English
Default : Да
Forced : Нет

Аудио #1
Идентификатор : 2
Формат : AC-3
Формат/Информация : Audio Coding 3
Расширение режима : CM (complete main)
Параметр Endianness формата : Big
Идентификатор кодека : A_AC3
Продолжительность : 1 ч. 47 м.
Вид битрейта : Постоянный
Битрейт : 640 Кбит/сек
Каналы : 6 каналов
Расположение каналов : Front: L C R, Side: L R, LFE
Частота : 48,0 КГц
Битовая глубина : 16 бит
Метод сжатия : С потерями
Размер потока : 494 Мбайт (6%)
Заголовок : Дубляж
Язык : Russian
Default : Да
Forced : Нет

Аудио #2
Идентификатор : 3
Формат : AC-3
Формат/Информация : Audio Coding 3
Расширение режима : CM (complete main)
Параметр Endianness формата : Big
Идентификатор кодека : A_AC3
Продолжительность : 1 ч. 47 м.
Вид битрейта : Постоянный
Битрейт : 640 Кбит/сек
Каналы : 6 каналов
Расположение каналов : Front: L C R, Side: L R, LFE
Частота : 48,0 КГц
Битовая глубина : 16 бит
Метод сжатия : С потерями
Размер потока : 494 Мбайт (6%)
Заголовок : Оригинал
Язык : English
Default : Нет
Forced : Нет

Текст #1
Идентификатор : 4
Формат : UTF-8
Идентификатор кодека : S_TEXT/UTF8
Идентификатор кодека/Информация : UTF-8 Plain Text
Язык : Russian
Default : Нет
Forced : Нет

Текст #2
Идентификатор : 5
Формат : UTF-8
Идентификатор кодека : S_TEXT/UTF8
Идентификатор кодека/Информация : UTF-8 Plain Text
Язык : English
Default : Нет
Forced : Нет

Меню
00:00:00.000 : :Back From the Future
00:02:57.510 : :Main Titles
00:04:17.632 : :Hill Valley, 2015
00:12:44.388 : :Marty Junior?
00:17:09.111 : :Batter Up!
00:21:16.525 : :The Almanac
00:26:59.659 : :The Future Mcfly's
00:34:15.428 : :Chicken
00:38:32.476 : :Past Imperfect
00:46:13.061 : :My Father!?
00:50:35.449 : :An Alternate 1985
00:55:32.620 : :About That Book
01:01:30.144 : :Back to 1955
01:07:14.196 : :Biff's Lucky Day
01:14:45.939 : :Back to the Dance
01:28:00.608 : :Get That Book!
01:34:43.302 : :Back to Normal?
01:37:46.026 : :A Letter From 1885
01:40:37.239 : :I'm Back
01:43:25.490 : :End Titles
01:47:59.055 : :End Titles II

pb.wtf



Скачать Назад в будущее 2 через торрент http://pic.kartinco.top/images/3/flsjuosqdg.jpg Скачать фильм Назад в будущее 2 через торрент бесплантно в хорошем качестве Описание: Продолжение фантастической истории о приключениях американского подростка во времени. На этот раз с помощью модернизированной ... 10 10 19
Info! Золотая раздача, скачанное не засчитывается.
Торрент: Зарегистрирован [2013-09-07 15:52] · скачан: 96 раз
Статус: √ проверено
Размер: 7.76 GB
Как cкачать? Как скачать Назад в будущее 2 через торрент | qTorrent

% Раздел Тема Автор DL S | L
Фильмы (HD 720p, 1080p) (48-60 fps) [ 3.99 GB ] Назад в будущее 2 / Back to the Future Part II [1989 BDRip - HEVC 1080p 12 bit 60 FPS] - [] dd2d3 Скачать
1 | 2
Фильмы до 2000 г. [ 2.18 GB ] Назад в будущее 2 / Back to the Future Part II [1989 HDTVRip] chaga2009 Скачать
1 | 0

28-11-2019 20:33  

Отключить всю рекламу на сайте

29-10-2015 20:43 Назад в будущее 2 Скачать торрент  

Дайте скорости, ни одного раздающего..Трилогию тоже никто не раздает, и по отдельности скачать не могуpb.wtf



30-10-2015 18:09 Назад в будущее 2 Скачать торрент  

Roniks писал(а):

Дайте скорости, ни одного раздающего..Трилогию тоже никто не раздает, и по отдельности скачать не могу

Присоединяюсь, такая дата и не кто не раздает ТАКОЕ кино!pb.wtf



09-12-2015 15:16 Назад в будущее 2 Скачать торрент  

Встаньте кто-нибудь на раздачу)))pb.wtf



    Дорогой пользователь! Огромная просьба, поблагодарите релизера, оцените раздачу и оставьте свои комментарий, если Вы скачали Назад в будущее 2 через торрент бесплатно! Внесите свою лепту в развитие PiratBit!
    Комментировать посты могут только пользователи прошедшие не сложную регистрацию
    Показать сообщения:    

    Назад в будущее 2 через торрент
    Скачать бесплатно Назад в будущее 2
    Назад в будущее 2 скачать торрент
    Назад в будущее 2 смотреть онлайн
    Cкачать фильм Назад в будущее 2 бесплатно
    Назад в будущее 2 скачать торрент в хорошем качестве
    Назад в будущее 2 смотреть онлайн бесплатно в хорошем качестве


    Вы не можете начинать темы
    Вы не можете отвечать на сообщения
    Вы не можете редактировать свои сообщения
    Вы не можете удалять свои сообщения
    Вы не можете голосовать в опросах
    Вы не можете прикреплять файлы к сообщениям
    Вы можете скачивать файлы