Ссылка на приватное зеркало всего за 1$. Внимание количество ограничено!!!

iTunes

iTunes

iTunes

1

iTunes

iTunes

iTunes

iTunes

iTunes

30
pack

$ от Little Big

ВАЖНО

!!Акция!!

Alien_RageХит недели

RePack

Resident Evil 21

ИГРА 18+

pack

RePack

jed

!!Акция!!

Alien_Rage

RePack

fifa19

RePack

Assassins Creed: Odyssey

RePack

NEED FOR SPEED™ PAYBACK

4 сезон

9 сезон

Бесстыжие 9 сезон

Все сериалы

все сериалы на PB.wtf

RePack

FAR CRY 5
  

Ошибки человеческого тела / Errors of the Human Body (Эрон Шиан / Eron Sheean) [2012, США, Германия, триллер, драма, WEB-DL 720p] VO + Original (Eng) + Sub (eng) pb.wtf

Ошибки человеческого тела через торрент pb.wtf

Размер: 3.43 GB | Добавлен: 6 лет 10 мес. назад | Торрент скачан:60 раз
Скачать  

08-09-2013 10:48 Ошибки человеческого тела Скачать торрент  

Ошибки человеческого тела / Errors of the Human Body


  • Год выпуска:2012
  • Страна:Германия, США
  • Жанр:триллер, драма
  • Продолжительность: 01:42:00
  • Перевод:Любительский (одноголосый) [den904] перевод [Janetta]

  • Субтитры: Нет
    • Режиссер:Эрон Шиан / Eron Sheean
    • Сценарий: Шэйн Даниелсен / Shane Danielsen, Эрон Шиан / Eron Sheean
    • Продюсер: Майк Деган / Mike Dehghan, Коул Пэйн / Cole Payne, Даррин Уэлш / Darryn Welch, Натаниель Болотин / Nathaniel Bolotin, Георг Деган / Georg Dehghan

  • В ролях:Майкл Эклунд (Geoffrey Burton), Каролина Херфурт (Rebekka Fiedler), Томас Лемаркус (Jarek Novak), Рик Майял (Samuel Mead), Кэролайн Гердоль (Sarah Burton), Юсукэ Ямадзаки (Chiba), Ульрих Майнеке (Waldemar), Иван Гонзалез (Miguel), Уша Рани (Sunny), Винсент Де Вилле (Dr. Kovak), Кристиан Мокк (Train Inspector), Сиенна Фарэлл (Voice Over Artist)
    • Описание:
      История американского врача Джеффа Бертона, который едет по делам в немецкий Дрезден, где планирует заняться также своими тайными исследованиями. Работа Бертона связана с разработкой гена регенерации, что, в сочетании с открытиями Джеффа, может помочь восстановить даже сильно поврежденный мозг. Эти разработки могут стать началом большого научного прорыва. Но какова цена таких достижений? Трагедия в прошлом героя триллера «Ошибки человеческого тела» наложила темный отпечаток на все его действия. А когда люди становятся одержимыми игрой в Бога, последствия не заставят себя ждать.

  • Рейтинг
    kinopoisk.ru: 5.480 (58)
    imdb.com: 5.20 (371)
    • Качество:WEB-DL 720p
    • Формат:MKV
    • Видео кодек: AVC
    • Аудио кодек:AC3
    • Видео: AVC, 1280x686 (1.866), 3951 kbps, 23,976 fps, 0,188 bpp
    • Аудио №1: русский / AC3 / 5.1 / 48 kHz / 384 kbps / 16 bit ||
    • Аудио №2: английский / AC3 / 5.1 / 48 kHz / 384 kbps / 16 bit


    General
    Unique ID : 252278669396146406240533107265289055491 (0xBDCB1AB81FEF2405AA5D45F9A83BED03)
    Complete name : D:ТорентыErrors of the Human Body.2012.WEB-DL 720p.mkv
    Format : Matroska
    Format version : Version 4 / Version 2
    File size : 3.43 GiB
    Duration : 1h 42mn
    Overall bit rate : 4 815 Kbps
    Encoded date : UTC 2013-05-06 17:25:00
    Writing application : mkvmerge v6.1.0 ('Old Devil') built on Mar 2 2013 14:32:37
    Writing library : libebml v1.3.0 + libmatroska v1.4.0

    Video
    ID : 1
    Format : AVC
    Format/Info : Advanced Video Codec
    Format profile : High@L3.1
    Format settings, CABAC : No
    Format settings, ReFrames : 2 frames
    Codec ID : V_MPEG4/ISO/AVC
    Duration : 1h 42mn
    Bit rate : 3 951 Kbps
    Width : 1 280 pixels
    Height : 686 pixels
    Display aspect ratio : 1.866
    Frame rate : 23.976 fps
    Color space : YUV
    Chroma subsampling : 4:2:0
    Bit depth : 8 bits
    Scan type : Progressive
    Bits/(Pixel*Frame) : 0.188
    Stream size : 2.82 GiB (82%)
    Language : English
    Default : Yes
    Forced : No
    Color primaries : BT.709-5, BT.1361, IEC 61966-2-4, SMPTE RP177
    Transfer characteristics : BT.709-5, BT.1361
    Matrix coefficients : BT.709-5, BT.1361, IEC 61966-2-4 709, SMPTE RP177

    Audio #1
    ID : 2
    Format : AC-3
    Format/Info : Audio Coding 3
    Mode extension : CM (complete main)
    Codec ID : A_AC3
    Duration : 1h 42mn
    Bit rate mode : Constant
    Bit rate : 384 Kbps
    Channel(s) : 6 channels
    Channel positions : Front: L C R, Side: L R, LFE
    Sampling rate : 48.0 KHz
    Bit depth : 16 bits
    Compression mode : Lossy
    Stream size : 280 MiB (8%)
    Title : VO [den904]
    Language : Russian
    Default : Yes
    Forced : No

    Audio #2
    ID : 3
    Format : AC-3
    Format/Info : Audio Coding 3
    Mode extension : CM (complete main)
    Codec ID : A_AC3
    Duration : 1h 42mn
    Bit rate mode : Constant
    Bit rate : 384 Kbps
    Channel(s) : 6 channels
    Channel positions : Front: L C R, Side: L R, LFE
    Sampling rate : 48.0 KHz
    Bit depth : 16 bits
    Compression mode : Lossy
    Stream size : 280 MiB (8%)
    Title : ENG
    Language : English
    Default : No
    Forced : No

    Text
    ID : 4
    Format : UTF-8
    Codec ID : S_TEXT/UTF8
    Codec ID/Info : UTF-8 Plain Text
    Title : Eng Sub
    Language : English
    Default : Yes
    Forced : No

    Menu
    00:00:00.000 : en:Chapter 1
    00:12:17.000 : en:Chapter 2
    00:19:32.000 : en:Chapter 3
    00:30:03.000 : en:Chapter 4
    00:39:30.000 : en:Chapter 5
    00:48:29.000 : en:Chapter 6
    01:00:13.000 : en:Chapter 7
    01:10:10.000 : en:Chapter 8
    01:20:17.000 : en:Chapter 9
    01:31:59.000 : en:Chapter 10
    01:38:27.000 : en:Chapter 11


    © Оформление by Vetalpb.wtf



  • Скачать Ошибки человеческого тела через торрент http://i1.imageban.ru/out/2013/09/08/0a3fe0d3df29e04b7cd33b918f6ace90.jpg Скачать фильм Ошибки человеческого тела через торрент бесплантно в хорошем качестве Описание:История американского врача Джеффа Бертона, который едет по делам в немецкий Дрезден, где планирует заняться также своими тайными ... 8.4 10 8
    Info! Золотая раздача, скачанное не засчитывается.
    Торрент: Зарегистрирован [2013-09-08 10:48] · скачан: 60 раз
    Статус: √ проверено
    Размер: 3.43 GB
    Как cкачать? Как скачать Ошибки человеческого тела через торрент | qTorrent

    % Раздел Тема Автор DL S | L
    Фильмы 2012 [ 1.37 GB ] Ошибки человеческого тела / Errors of the Human Body [2012 WEB-DLRip VO] [den904] бон Скачать
    1 | 0

    28-11-2019 20:33  

    Отключить всю рекламу на сайте

      Дорогой пользователь! Огромная просьба, поблагодарите релизера, оцените раздачу и оставьте свои комментарий, если Вы скачали Ошибки человеческого тела через торрент бесплатно! Внесите свою лепту в развитие PiratBit!
      Комментировать посты могут только пользователи прошедшие не сложную регистрацию
      Показать сообщения:    

      Ошибки человеческого тела через торрент
      Скачать бесплатно Ошибки человеческого тела
      Ошибки человеческого тела скачать торрент
      Ошибки человеческого тела смотреть онлайн
      Cкачать фильм Ошибки человеческого тела бесплатно
      Ошибки человеческого тела скачать торрент в хорошем качестве
      Ошибки человеческого тела смотреть онлайн бесплатно в хорошем качестве


      Вы не можете начинать темы
      Вы не можете отвечать на сообщения
      Вы не можете редактировать свои сообщения
      Вы не можете удалять свои сообщения
      Вы не можете голосовать в опросах
      Вы не можете прикреплять файлы к сообщениям
      Вы можете скачивать файлы