Мега распродажа FORZA HORIZON 4 ULTIMATE+ВСЕ DLC+ОНЛАЙН всего за 499р. 349 руб. (супер цена). Внимание количество ограничено!!!

Лицензия

30

iTunes

мы

iTunes

1

1 сезон

Чернобыль

1 сезон

Ральф против интернета

MVO

Покемон. Детектив Пикачу

8 сезон

Игра престолов

iTunes

1+1

ИГРА 18+

pack

ВАЖНО

!!Акция!!

Alien_RageХит недели

RePack

Resident Evil 21
pack

RePack

Metro:Exodus

!!Акция!!

Alien_Rage

RePack

fifa19

RePack

Assassins Creed: Odyssey

RePack

NEED FOR SPEED™ PAYBACK

3 сезон

9 сезон

Бесстыжие 9 сезон

Все сериалы

все сериалы на PB.wtf

RePack

FAR CRY 5
Ребята, катастрофически не хватает 2730р. для оплаты серверов за МАЙ (всвязи с блокировками трафик упал в 3 раза), 1-2р., выручайте.
  

Загон для собак / Dog Pound (Ким Шапирон) [2009, драма , HDRip,VO] pb.wtf

Загон для собак через торрент pb.wtf

Размер: 1.37 GB | Добавлен: 5 лет 9 мес. назад | Торрент скачан:91 раз
Скачать  

08-09-2013 17:36 Загон для собак Скачать торрент  


Загон для собак / Dog Pound


«Fighting Back Is The Only Way Out»

Год выпуска: 2009
Страна: Франция , Канада , Великобритания
Жанр: драма
Продолжительность: 01:30:59
Перевод: Любительский (одноголосый закадровый) zamez

Режиссер: Ким Шапирон
Сценарий: Джереми Делон, Ким Шапирон
Продюсер: Жорж Берманн, Фредерик Жункуа

В ролях: Адам Батчер / Adam Butcher (Butch), Шэйн Киппел / Shane Kippel (Davis), Матео Моралес / Mateo Morales (Angel), Слим Твиг / Slim Twig (Max), Тейлор Пулин / Taylor Poulin (Banks), Дьюшэйн Уильямс / Dewshane Williams (Frank), Лоуренс Бэйн / Lawrence Bayne (Goodyear), Трент МакКаллен / Trent McMullen (Sands)


Описание: Трое молодых парней попадают в исправительную колонию для подростков. Попав в нее, каждый должен выбрать одну из двух сторон, быть сильным и непримиримым, либо стать жертвой издевательств и унижений…

СЭМПЛ

Качество: HDRip
Формат: AVI
Видео кодек: XviD
Аудио кодек: AC3
Видео: 720x400 (16:9), 23.976 fps, XviD, 1 694 Kbps
Аудио: Аудио #1: AC3, 448 Kbps, 48.0 KHz, 6 ch

Код:

General
Complete name                    : Dog_Pound.avi
Format                           : AVI
Format/Info                      : Audio Video Interleave
File size                        : 1.37 GiB
Duration                         : 1h 30mn
Overall bit rate                 : 2 151 Kbps
Writing application              : VirtualDubMod 1.5.10.3 (build 2550/release)
Writing library                  : VirtualDubMod build 2550/release

Video
ID                               : 0
Format                           : MPEG-4 Visual
Format profile                   : Advanced Simple@L5
Format settings, BVOP            : Yes
Format settings, QPel            : No
Format settings, GMC             : No warppoints
Format settings, Matrix          : Default (H.263)
Codec ID                         : XVID
Codec ID/Hint                    : XviD
Duration                         : 1h 30mn
Bit rate                         : 1 694 Kbps
Width                            : 720 pixels
Height                           : 400 pixels
Display aspect ratio             : 16:9
Frame rate                       : 23.976 fps
Color space                      : YUV
Chroma subsampling               : 4:2:0
Bit depth                        : 8 bits
Scan type                        : Progressive
Bits/(Pixel*Frame)               : 0.245
Stream size                      : 1.08 GiB (79%)
Writing library                  : XviD 1.2.1 (UTC 2008-12-04)

Audio
ID                               : 1
Format                           : AC-3
Format/Info                      : Audio Coding 3
Mode extension                   : CM (complete main)
Codec ID                         : 2000
Duration                         : 1h 30mn
Bit rate mode                    : Constant
Bit rate                         : 448 Kbps
Channel(s)                       : 6 channels
Channel positions                : Front: L C R, Side: L R, LFE
Sampling rate                    : 48.0 KHz
Bit depth                        : 16 bits
Stream size                      : 292 MiB (21%)
Alignment                        : Split accross interleaves
Interleave, duration             : 42 ms (1.00 video frame)
Interleave, preload duration     : 500 ms








pb.wtf



Скачать Загон для собак через торрент http://i58.fastpic.ru/big/2013/0908/a7/2e832e4f423e3fba2ce71f3fa32c52a7.jpg Скачать фильм Загон для собак через торрент бесплантно в хорошем качестве Описание: Трое молодых парней попадают в исправительную колонию для подростков. Попав в нее, каждый должен выбрать одну из двух сторон, ... 9.1 10 14
Info! Золотая раздача, скачанное не засчитывается.
Торрент: Зарегистрирован [2013-09-08 17:36] · скачан: 91 раз
Статус: √ проверено
Размер: 1.37 GB
Как cкачать? Как скачать Загон для собак через торрент | qTorrent

% Раздел Тема Автор DL S | L
Фильмы 2010 [ 1.37 GB ] Загон для собак / Dog Pound [2010 HDRip] MIO2008 Скачать
1 | 0


>> Регистрируемся здесь <<






Отзывы и комментарии о схеме читаем и пишем здесь: ---> Отзывы и комментарии о схеме

Новые благодарочки в телеграм довольных пользователей:
скриншот   скриншот   скриншот   скриншот   скриншот

08-09-2013 19:02 Загон для собак Скачать торрент  

офигенный фильм!pb.wtf



    Дорогой пользователь! Огромная просьба, поблагодарите релизера, оцените раздачу и оставьте свои комментарий, если Вы скачали Загон для собак через торрент бесплатно! Внесите свою лепту в развитие PiratBit!
    Комментировать посты могут только пользователи прошедшие не сложную регистрацию
    Показать сообщения:    

    Загон для собак через торрент
    Скачать бесплатно Загон для собак
    Загон для собак скачать торрент
    Загон для собак смотреть онлайн
    Cкачать фильм Загон для собак бесплатно
    Загон для собак скачать торрент в хорошем качестве
    Загон для собак смотреть онлайн бесплатно в хорошем качестве


    Вы не можете начинать темы
    Вы не можете отвечать на сообщения
    Вы не можете редактировать свои сообщения
    Вы не можете удалять свои сообщения
    Вы не можете голосовать в опросах
    Вы не можете прикреплять файлы к сообщениям
    Вы можете скачивать файлы