2 сезон

iTunes

MVO

1

2 сезон

iTunes

iTunes

1 сезон

RePack

30

Новинка

ВАЖНО

ИГРА 18+

pack

RePack

MK11
pack

Легкие деньги

RePack

jed

RePack

fifa19

RePack

RDR2

RePack

NEED FOR SPEED™ PAYBACK

4 сезон

9 сезон

Бесстыжие 9 сезон

Все сериалы

все сериалы на PB.wtf

RePack

FAR CRY 5

Anonymous, доброе утро, мы не успеваем собрать деньги на оплату серверов за декабрь и январь, помогите нам пожалуйста в это трудное время. В качестве благодарности мы отключим Вам всю рекламу на сайте (укажите свой ник в строку Ваше имя)!

×
  
Magnet ссылка

Одним меньше / Dead Man Down (Нильс Арден Оплев / Niels Arden Oplev) [ 2013 , США , триллер, драма, криминал , BDRip-AVC , Дубляж, Лицензия] pb.wtf

Одним меньше через торрент pb.wtf

Размер: 2.03 GB | Добавлен: 7 лет 4 мес. назад | Торрент скачан:628 раз
Скачать  

09-09-2013 14:06 Одним меньше Скачать торрент  

Одним меньше / Dead Man Down
  • Год выпуска: 2013
  • Страна: США
  • Жанр: триллер, драма, криминал, боевик

  • Продолжительность: 01:57:47
  • Перевод: Дубляж, Лицензия
  • Субтитры: Английские, английские (SDH), русские (Notabenoid)
  • Режиссер: Нильс Арден Оплев / Niels Arden Oplev
  • В ролях: Колин Фаррелл (Victor), Нуми Рапас (Beatrice), Терренс Ховард (Alphonse), Доминик Купер (Darcy), Изабель Юппер (Valentine Louzon), Луис Да Силва мл. (Terry), Стью Беннетт (Kilroy), Фрэнки Джи (Luco), Деклан Мулвей (Goff), Джон Ченатьемпо (Charles), Лерой Уилсон мл. (Blotto), Майлс Хамфус (Lance)
  • Описание: История человека по имени Виктор, он правая рука лидера преступной группировки из Нью-Йорка. Виктор неспроста оказался в криминальном синдикате: мафия уничтожила его семью, поэтому он хочет отомстить. Об этом узнает загадочная Беатрис, соблазняет его и шантажирует. Однако у героев только одна цель в жизни - месть. И она приведет их к кровавой развязке.
  • Рейтинг
    kinopoisk.ru: 6.710 (6766)
    imdb.com: 6.50 (26 280)
    MPAA: R - Лицам до 17 лет обязательно присутствие взрослого
  • Качество: BDRip-AVC
  • Формат: MKV
  • Видео кодек: H.264
  • Аудио кодек: AC3
  • Видео: H.264, 1032x430 (2.40:1), 23,976 fps, 1758 Кbps, 0.165 bit/pixel
  • Аудио №1: 48 kHz, AC3 Dolby Digital, 3/2 (L,C,R,l,r) + LFE ch, 256.00 kbps | RUS
  • Аудио №2: 48 kHz, AC3 Dolby Digital, 3/2 (L,C,R,l,r) + LFE ch, 448.00 kbps | ENG

    General
    Unique ID : 204049731172215044675473781373461620548 (0x99828C7A4829776884AB9D67998C6744)
    Complete name : D:Odnim.Men'she.2013.DUAL.BDRip.x264.HELLYWOOD.mkv
    Format : Matroska
    Format version : Version 4 / Version 2
    File size : 2.03 GiB
    Duration : 1h 57mn
    Overall bit rate : 2 464 Kbps
    Movie name : HELLYWOOD - rip by potroks
    Encoded date : UTC 2013-09-07 12:36:31
    Writing application : mkvmerge v5.9.0 ('On The Loose') built on Dec 15 2012 16:39:58
    Writing library : libebml v1.3.0 + libmatroska v1.4.0

    Video
    ID : 1
    Format : AVC
    Format/Info : Advanced Video Codec
    Format profile : High@L4.1
    Format settings, CABAC : Yes
    Format settings, ReFrames : 10 frames
    Codec ID : V_MPEG4/ISO/AVC
    Duration : 1h 57mn
    Bit rate : 1 758 Kbps
    Width : 1 032 pixels
    Height : 430 pixels
    Display aspect ratio : 2.40:1
    Frame rate : 23.976 fps
    Color space : YUV
    Chroma subsampling : 4:2:0
    Bit depth : 8 bits
    Scan type : Progressive
    Bits/(Pixel*Frame) : 0.165
    Stream size : 1.41 GiB (69%)
    Title : Dead Man Down
    Writing library : x264 core 125 r2208 d9d2288
    Encoding settings : cabac=1 / ref=10 / deblock=1:-2:-1 / analyse=0x3:0x133 / me=umh / subme=11 / psy=1 / psy_rd=1.05:0.01 / mixed_ref=1 / me_range=32 / chroma_me=1 / trellis=2 / 8x8dct=1 / cqm=0 / deadzone=21,11 / fast_pskip=0 / chroma_qp_offset=-3 / threads=9 / lookahead_threads=1 / sliced_threads=0 / nr=0 / decimate=1 / interlaced=0 / bluray_compat=0 / constrained_intra=0 / bframes=11 / b_pyramid=2 / b_adapt=2 / b_bias=0 / direct=3 / weightb=1 / open_gop=0 / weightp=2 / keyint=240 / keyint_min=23 / scenecut=40 / intra_refresh=0 / rc_lookahead=130 / rc=2pass / mbtree=1 / bitrate=1758 / ratetol=1.0 / qcomp=0.70 / qpmin=0 / qpmax=69 / qpstep=4 / cplxblur=20.0 / qblur=0.5 / vbv_maxrate=20000 / vbv_bufsize=20000 / nal_hrd=none / ip_ratio=1.35 / aq=1:0.90
    Language : English
    Default : Yes
    Forced : No

    Audio #1
    ID : 2
    Format : AC-3
    Format/Info : Audio Coding 3
    Mode extension : CM (complete main)
    Codec ID : A_AC3
    Duration : 1h 57mn
    Bit rate mode : Constant
    Bit rate : 256 Kbps
    Channel(s) : 6 channels
    Channel positions : Front: L C R, Side: L R, LFE
    Sampling rate : 48.0 KHz
    Bit depth : 16 bits
    Compression mode : Lossy
    Stream size : 216 MiB (10%)
    Title : Dub | DD 2.0 @ 256 kbps - R5
    Language : Russian
    Default : Yes
    Forced : Yes

    Audio #2
    ID : 3
    Format : AC-3
    Format/Info : Audio Coding 3
    Mode extension : CM (complete main)
    Codec ID : A_AC3
    Duration : 1h 57mn
    Bit rate mode : Constant
    Bit rate : 448 Kbps
    Channel(s) : 6 channels
    Channel positions : Front: L C R, Side: L R, LFE
    Sampling rate : 48.0 KHz
    Bit depth : 16 bits
    Compression mode : Lossy
    Stream size : 377 MiB (18%)
    Title : Original | DD 5.1 @ 448 kbps
    Language : English
    Default : No
    Forced : No

    Text #1
    ID : 4
    Format : UTF-8
    Codec ID : S_TEXT/UTF8
    Codec ID/Info : UTF-8 Plain Text
    Language : English
    Default : No
    Forced : No

    Text #2
    ID : 5
    Format : UTF-8
    Codec ID : S_TEXT/UTF8
    Codec ID/Info : UTF-8 Plain Text
    Title : SDH
    Language : English
    Default : No
    Forced : No

    Text #3
    ID : 6
    Format : UTF-8
    Codec ID : S_TEXT/UTF8
    Codec ID/Info : UTF-8 Plain Text
    Title : Notabenoid
    Language : Russian
    Default : No
    Forced : No
    pb.wtf



  • Скачать Одним меньше через торрент http://i6.imageban.ru/out/2013/09/09/40c14e2b214ab686c4fb6b61558a55bf.png Скачать фильм Одним меньше через торрент бесплантно в хорошем качестве Описание: История человека по имени Виктор, он правая рука лидера преступной группировки из Нью-Йорка. Виктор неспроста оказался в ... 9.7 10 15
    Info! Золотая раздача, скачанное не засчитывается.
    Торрент: Зарегистрирован [2013-09-09 14:06] · скачан: 628 раз
    Статус: √ проверено
    Размер: 2.03 GB
    Как cкачать? Как скачать Одним меньше через торрент | UTorrent

    % Раздел Тема Автор DL S | L
    Фильмы [HD 720p, 1080p] (Хороший звук DUB, MVO) [ 13.75 GB ] Одним меньше / Dead Man Down [2013 BDRip1080p by msltel] DUB AVO msltel Скачать
    1 | 0
    Фильмы [HD 720p, 1080p] (Хороший звук DUB, MVO) [ 4.89 GB ] Одним меньше / Dead Man Down [2013 BDRip720p by msltel] DUB AVO msltel Скачать
    1 | 0
    Фильмы 2013 [DVDrip, WEB-DLRip, HDrip] [ 1.35 GB ] Одним меньше / Dead Man Down [2013 HDRip] DUB Ворон Скачать
    1 | 0
    Фильмы [HD 720p, 1080p] (Хороший звук DUB, MVO) [ 13.22 GB ] Одним меньше / Dead Man Down [2013 BDRip 1080p DUB AVO] лисяра Скачать
    1 | 0
    Фильмы 2013 [DVDrip, WEB-DLRip, HDrip] [ 734 MB ] Одним меньше / Dead Man Down [2013 HDRip-AVC] Dub () sokol_ok Скачать
    2 | 0
    Фильмы 2013 [DVDrip, WEB-DLRip, HDrip] [ 1.47 GB ] Одним меньше / Dead Man Down [2013 HDRip-AVC] Dub () + Eng sokol_ok Скачать
    2 | 0
    Фильмы [HD 720p, 1080p] (Хороший звук DUB, MVO) [ 5.03 GB ] Одним меньше / Dead Man Down [2013 BDRip 720p [лицензия] Ворон Скачать
    1 | 0


    Последний раз редактировалось: МАКС1 (2013-09-09 14:43), всего редактировалось 1 раз

    28-11-2019 20:33  

    Отключить всю рекламу на сайте

    09-09-2013 14:39 Одним меньше Скачать торрент  

    МАКС1 писал(а):

    Аудио №1: 48 kHz, AC3 Dolby Digital, 2/0 (L,C) ch, 256.00 kbps | RUS

    МАКС1 писал(а):

    Audio #1
    ID : 2
    Format : AC-3
    Format/Info : Audio Coding 3
    Mode extension : CM (complete main)
    Codec ID : A_AC3
    Duration : 1h 57mn
    Bit rate mode : Constant
    Bit rate : 256 Kbps
    Channel(s) : 6 channels

    Данные не сходятся с MI, исправьте.pb.wtf



      Дорогой пользователь! Огромная просьба, поблагодарите релизера, оцените раздачу и оставьте свои комментарий, если Вы скачали Одним меньше через торрент бесплатно! Внесите свою лепту в развитие PiratBit!
      Комментировать посты могут только пользователи прошедшие не сложную регистрацию
      Показать сообщения:    

      Одним меньше через торрент
      Скачать бесплатно Одним меньше
      Одним меньше скачать торрент
      Одним меньше смотреть онлайн
      Cкачать фильм Одним меньше бесплатно
      Одним меньше скачать торрент в хорошем качестве
      Одним меньше смотреть онлайн бесплатно в хорошем качестве


      Вы не можете начинать темы
      Вы не можете отвечать на сообщения
      Вы не можете редактировать свои сообщения
      Вы не можете удалять свои сообщения
      Вы не можете голосовать в опросах
      Вы не можете прикреплять файлы к сообщениям
      Вы можете скачивать файлы