2 сезон

iTunes

1 сезон

1

iTunes

iTunes

iTunes

1 сезон

RePack

30

ИГРА 18+

pack

ВАЖНО

!!Акция!!

Alien_RageХит недели

RePack

MK11
pack

Забери бонус

RePack

jed

!!Акция!!

Alien_Rage

RePack

fifa19

RePack

Assassins Creed: Odyssey

RePack

NEED FOR SPEED™ PAYBACK

4 сезон

9 сезон

Бесстыжие 9 сезон

Все сериалы

все сериалы на PB.wtf

RePack

FAR CRY 5
  

Командир эскадрильи / Wing Commander (Крис Робертс / Chris Roberts) [1999 , США, Люксембург , фантастика, боевик, приключения , BDRip 720р , MVO , Original] pb.wtf

Командир эскадрильи через торрент pb.wtf

Размер: 4.18 GB | Добавлен: 7 лет 1 мес. назад | Торрент скачан:152 раза
Скачать  

09-09-2013 16:19 Командир эскадрильи Скачать торрент  

Командир эскадрильи / Wing Commander

Слоган: «At the edge of our universe, all hell is about to break loose.»
Год выпуска: 1999
Страна: США, Люксембург
Жанр: фантастика, боевик, приключения
Продолжительность: 01:40:13
Перевод: Профессиональный (многоголосый, закадровый) + Оригинальный

Режиссер: Крис Робертс / Chris Roberts
В ролях: Фредди Принц мл. (1st Lt. Christopher Blair), Саффрон Берроуз (Lt. Cmdr. «Angel» Devereaux), Мэттью Лиллард (Lt. Todd «Maniac» Marshall), Чеки Карио (Cmmdre. James «Paladin» Taggart), Юрген Прохнов (Cmdr. Paul Gerald), Дэвид Уорнер (Adm. Geoffrey Tolwyn), Джинни Холдер (Rosie Forbes), Хью Куарши (Obutu), Кен Бонс (Adm. Bill Wilson), Джон МакГлинн (Belegarde), Ричард Диллэйн (Hunter), Марк Поули (Polansky)
Описание: Этот фильм - экранизация знаменитой компьютерной игры «Wing Commander». Десант с земного космического корабля сталкивается со смертоносным оружием в безнадежной битве за будущее человечества. Враждебная инопланетная раса килратхов обнаружила координаты Земли и направляется в Солнечную Систему с планами тотального уничтожения.
И вот настало время для двух молодых отчаянных пилотов космических истребителей прорвать оборону килратхов и спасти свою планету от орд захватчиков, встреченных землянами в глубинах космоса.
Рейтинг
kinopoisk.ru: 6.073 (421)
imdb.com: 3.80 (11 504)
MPAA: PG-13 - Детям до 13 лет просмотр не желателен
Бюджет: $30 000 000
Сборы в США: $11 578 059
Мировая премьера: 12 марта 1999
Релиз на DVD: 22 апреля 2010

  • Качество: BDRip 720р
  • Формат: MKV
  • Видео кодек: AVC
  • Аудио кодек: AC3
  • Видео: AVC, 1280x544 (2.35:1), 4500 kbps, 23,976 fps, 0,270 bpp
  • Аудио №1: русский / AC3 / 5.1 / 48 kHz / 448 kbps / 16 bit (Многоголосый) (R5)
  • Аудио №2: русский / AC3 / 2.0 / 48 kHz / 384 kbps / 16 bit (Многоголосый)
  • Аудио №3: английский / AC3 / 5.1 / 48 kHz / 640 kbps / 16 bit
    • Фильм снят по мотивам серии компьютерных игр «Wing Commander» (1990 - н. в.).
    Трейлер
    Format : Matroska
    Format version : Version 2
    File size : 4.18 GiB
    Duration : 1h 40mn
    Overall bit rate : 5 975 Kbps
    Encoded date : UTC 2013-09-08 19:54:17
    Writing application : mkvmerge v5.6.0 ('Kenya Kane') built on May 27 2012 16:44:04
    Writing library : libebml v1.2.3 + libmatroska v1.3.0

    Video
    ID : 1
    Format : AVC
    Format/Info : Advanced Video Codec
    Format profile : High@L4.1
    Format settings, CABAC : Yes
    Format settings, ReFrames : 4 frames
    Codec ID : V_MPEG4/ISO/AVC
    Duration : 1h 40mn
    Bit rate : 4 500 Kbps
    Width : 1 280 pixels
    Height : 544 pixels
    Display aspect ratio : 2.35:1
    Frame rate : 23.976 fps
    Color space : YUV
    Chroma subsampling : 4:2:0
    Bit depth : 8 bits
    Scan type : Progressive
    Bits/(Pixel*Frame) : 0.270
    Stream size : 3.07 GiB (73%)
    Title : Wing.Commander.1999.BDRip.720.HDTracker.FREEDONOR
    Writing library : x264 core 92 r1510 33d382a
    Encoding settings : cabac=1 / ref=4 / deblock=1:-3:-3 / analyse=0x3:0x133 / me=umh / subme=10 / psy=1 / psy_rd=1.00:0.10 / mixed_ref=1 / me_range=32 / chroma_me=1 / trellis=2 / 8x8dct=1 / cqm=0 / deadzone=21,11 / fast_pskip=0 / chroma_qp_offset=-3 / threads=6 / sliced_threads=0 / nr=0 / decimate=1 / interlaced=0 / constrained_intra=0 / bframes=4 / b_pyramid=0 / b_adapt=2 / b_bias=0 / direct=0 / wpredb=0 / wpredp=2 / keyint=240 / keyint_min=23 / scenecut=40 / intra_refresh=0 / rc_lookahead=50 / rc=2pass / mbtree=1 / bitrate=4500 / ratetol=1.0 / qcomp=0.60 / qpmin=1 / qpmax=51 / qpstep=4 / cplxblur=20.0 / qblur=0.5 / vbv_maxrate=40000 / vbv_bufsize=30000 / ip_ratio=1.40 / aq=1:1.00 / nal_hrd=none
    Language : English
    Default : Yes
    Forced : No

    Audio #1
    ID : 2
    Format : AC-3
    Format/Info : Audio Coding 3
    Mode extension : CM (complete main)
    Codec ID : A_AC3
    Duration : 1h 40mn
    Bit rate mode : Constant
    Bit rate : 448 Kbps
    Channel(s) : 6 channels
    Channel positions : Front: L C R, Side: L R, LFE
    Sampling rate : 48.0 KHz
    Bit depth : 16 bits
    Compression mode : Lossy
    Stream size : 321 MiB (7%)
    Title : MVO.R5
    Language : Russian
    Default : No
    Forced : No

    Audio #2
    ID : 3
    Format : AC-3
    Format/Info : Audio Coding 3
    Mode extension : CM (complete main)
    Codec ID : A_AC3
    Duration : 1h 40mn
    Bit rate mode : Constant
    Bit rate : 384 Kbps
    Channel(s) : 2 channels
    Channel positions : Front: L R
    Sampling rate : 48.0 KHz
    Bit depth : 16 bits
    Compression mode : Lossy
    Stream size : 275 MiB (6%)
    Title : MVO
    Language : Russian
    Default : Yes
    Forced : No

    Audio #3
    ID : 4
    Format : AC-3
    Format/Info : Audio Coding 3
    Mode extension : CM (complete main)
    Codec ID : A_AC3
    Duration : 1h 40mn
    Bit rate mode : Constant
    Bit rate : 640 Kbps
    Channel(s) : 6 channels
    Channel positions : Front: L C R, Side: L R, LFE
    Sampling rate : 48.0 KHz
    Bit depth : 16 bits
    Compression mode : Lossy
    Stream size : 459 MiB (11%)
    Title : ENG
    Language : English
    Default : No
    Forced : No

    Text #1
    ID : 5
    Format : UTF-8
    Codec ID : S_TEXT/UTF8
    Codec ID/Info : UTF-8 Plain Text
    Title : RUS
    Language : Russian
    Default : Yes
    Forced : No

    Text #2
    ID : 6
    Format : UTF-8
    Codec ID : S_TEXT/UTF8
    Codec ID/Info : UTF-8 Plain Text
    Title : ENG
    Language : English
    Default : No
    Forced : No

    Menu
    00:00:00.000 : :Chapter 01
    00:10:31.881 : :Chapter 02
    00:18:45.374 : :Chapter 03
    00:28:57.777 : :Chapter 04
    00:39:09.972 : :Chapter 05
    00:49:51.321 : :Chapter 06
    00:59:54.382 : :Chapter 07
    01:09:19.572 : :Chapter 08
    01:20:31.493 : :Chapter 09
    01:31:51.047 : :Chapter 10
    01:34:59.193 : :Chapter 11
    01:40:12.756 : :Chapter 12
    pb.wtf



  • Скачать Командир эскадрильи через торрент http://i3.imageban.ru/out/2013/09/09/784149cf5323bd7c04211e61e5bbf392.png Скачать фильм Командир эскадрильи через торрент бесплантно в хорошем качестве Описание: Этот фильм - экранизация знаменитой компьютерной игры «Wing Commander». Десант с земного космического корабля сталкивается со ... 10 10 11
    Info! Золотая раздача, скачанное не засчитывается.
    Торрент: Зарегистрирован [2013-09-09 16:19] · скачан: 152 раз
    Статус: √ проверено
    Размер: 4.18 GB
    Как cкачать? Как скачать Командир эскадрильи через торрент | qTorrent

    % Раздел Тема Автор DL S | L
    Другие симуляторы [ 3.32 GB ] Wing Commander Saga: The Darkest Dawn / Командир эскадрильи сага: Темный рассвет 2012 [лицензияENG/ENGКосмический симулятор] sergey82 Скачать
    1 | 0


    Последний раз редактировалось: кэп (2013-09-09 17:44), всего редактировалось 1 раз

    28-11-2019 20:33  

    Отключить всю рекламу на сайте

    09-09-2013 17:08 Командир эскадрильи Скачать торрент  

    kinopoisk.ru: 6.073 (421)
    imdb.com: 3.80 (11 504)
    Кто мне скажет кому верить?
    хотя судя по количеству проголосовавших на кинопоиске поверим imdb.
    КэП как фильм??
    pb.wtf



    09-09-2013 17:42 Командир эскадрильи Скачать торрент  

    mastre писал(а):

    КэП как фильм??

    Пока ещё не смотрел. Жду отзывы.
    pb.wtf



    09-09-2013 20:46 Командир эскадрильи Скачать торрент  

    вполне неплох,посмотреть можноpb.wtf



    10-09-2013 00:55 Командир эскадрильи Скачать торрент  

    Фильм из детства. Любителям фантастики понравится.pb.wtf



    10-09-2013 12:05 Командир эскадрильи Скачать торрент  

    Посмотрел 5 мин больше не выдержал.
    полное УГ.(люблю фильмы перекаченные спецэффектами).
    удаляю только место на харде занимает. pb.wtf



    10-09-2013 16:09 Командир эскадрильи Скачать торрент  

    а можно выложить ави сжатый, например, 1,37 ? заранее благодарен pb.wtf



    11-09-2013 07:25 Командир эскадрильи Скачать торрент  

    Классный фильм и не одноразовый как многие другие, спасибо за релиз с удовольствием посмотрелpb.wtf



      Дорогой пользователь! Огромная просьба, поблагодарите релизера, оцените раздачу и оставьте свои комментарий, если Вы скачали Командир эскадрильи через торрент бесплатно! Внесите свою лепту в развитие PiratBit!
      Комментировать посты могут только пользователи прошедшие не сложную регистрацию
      Показать сообщения:    

      Командир эскадрильи через торрент
      Скачать бесплатно Командир эскадрильи
      Командир эскадрильи скачать торрент
      Командир эскадрильи смотреть онлайн
      Cкачать фильм Командир эскадрильи бесплатно
      Командир эскадрильи скачать торрент в хорошем качестве
      Командир эскадрильи смотреть онлайн бесплатно в хорошем качестве


      Вы не можете начинать темы
      Вы не можете отвечать на сообщения
      Вы не можете редактировать свои сообщения
      Вы не можете удалять свои сообщения
      Вы не можете голосовать в опросах
      Вы не можете прикреплять файлы к сообщениям
      Вы можете скачивать файлы