Ссылка на приватное зеркало нашего сайта всего за 1$. Внимание количество ограничено!!!

2 сезон

iTunes

1 сезон

1

2 сезон

2 сезон

iTunes

1 сезон

RePack

30

Новинка

ВАЖНО

ИГРА 18+

pack

RePack

MK11
pack

Забери бонус

RePack

jed

!!Акция!!

Alien_Rage

RePack

fifa19

RePack

Assassins Creed: Odyssey

RePack

NEED FOR SPEED™ PAYBACK

4 сезон

9 сезон

Бесстыжие 9 сезон

Все сериалы

все сериалы на PB.wtf

RePack

FAR CRY 5
  

Тринадцатый / XIII: Сезон: 1 / Серии 1-13(13) (Дуан Кларк, Ален Тасма)[2011 г., боевик, HDRip] DVO,Original (AXN Sci-Fi Россия) pb.wtf

Тринадцатый через торрент pb.wtf

Размер: 9.45 GB | Добавлен: 7 лет 2 мес. назад | Торрент скачан:201 раз
Скачать  

09-09-2013 16:43 Тринадцатый Скачать торрент  


Тринадцатый / XIII
Год выпуска: 2011
Страна: Канада, Франция
Жанр: детектив, боевик, драма,
Продолжительность: ~00:43:34
Перевод: Профессиональный двухголосый (закадровый)(AXN Sci-Fi Россия)

Режиссер: Дуан Кларк

В ролях: Стюарт Таунсенд, Вирджиния Ледуайен, Грег Брайк, Стивен МакХэтти, Паулино Нюнс, Аиша Тайлер, Катерина Мурино,
Описание: Первая в США женщина-президент убита метким снайперским выстрелом во время выступления в День ветеранов. Убийца не найден. Вскоре после этого в лесу находят таинственного парашютиста. Он ранен и не помнит абсолютно ничего из своего прошлого. На его груди загадочная татуировка — «XIII». Теперь молодому человеку предстоит понять кто он такой и попытаться раскрыть правительственный заговор...
.
Продолжение минисериала XIII вышедшего в 2008 году: XIII: Конспирация / XIII: The Conspiracy
1. Пилот (Pilot)
2. Грин Фолз (Green Falls)
3. Изоляция (Lockdown)
4. Ирландская работа (The Irish Version)
5. Тренировочный лагерь (Training Camp)
6. Коста Верде (Costa Verde)
7. Откат (Undertow)
8. Охота на стороне (Hunting Party)
9. Ограбление банка (The Bank Job)
10. Поезд (The Train)
11. Бункер (The Bunker)
12. Ключ (The Key)
13. Разоблачение(Revelation)
Качество: HDRip
Формат: AVI
Видео кодек: XviD
Аудио кодек: AC3
Видео: 720x400 (16:9), 25.000 fps, XviD, 2 000 Kbps
Аудио#1: Rus: 48 kHz, Dolby Digital, 2/0 (L,R) ch, ~192 kbps (AXN Sci-Fi Россия)
Аудио#2: Eng: 48 kHz, Dolby Digital, 2/0 (L,R) ch, ~192 kbps




General
General
Complete name : XIII.s01e01.rus.eng.avi
Format : AVI
Format/Info : Audio Video Interleave
File size : 748 MiB
Duration : 43mn 34s
Overall bit rate : 2 398 Kbps
Writing application : VirtualDubMod 1.5.10.2 (build 2540/release)
Writing library : VirtualDubMod build 2540/release

Video
ID : 0
Format : MPEG-4 Visual
Format profile : Advanced Simple@L5
Format settings, BVOP : Yes
Format settings, QPel : No
Format settings, GMC : No warppoints
Format settings, Matrix : Default (MPEG)
Codec ID : XVID
Codec ID/Hint : XviD
Duration : 43mn 34s
Bit rate : 2 000 Kbps
Width : 720 pixels
Height : 400 pixels
Display aspect ratio : 16:9
Frame rate : 25.000 fps
Color space : YUV
Chroma subsampling : 4:2:0
Bit depth : 8 bits
Scan type : Progressive
Bits/(Pixel*Frame) : 0.278
Stream size : 623 MiB (83%)
Writing library : XviD 65

Audio #1
ID : 1
Format : AC-3
Format/Info : Audio Coding 3
Mode extension : CM (complete main)
Codec ID : 2000
Duration : 43mn 34s
Bit rate mode : Constant
Bit rate : 192 Kbps
Channel(s) : 2 channels
Channel positions : Front: L R
Sampling rate : 48.0 KHz
Bit depth : 16 bits
Stream size : 59.8 MiB (8%)
Alignment : Split accross interleaves
Interleave, duration : 40 ms (1.00 video frame)
Interleave, preload duration : 500 ms

Audio #2
ID : 2
Format : AC-3
Format/Info : Audio Coding 3
Mode extension : CM (complete main)
Codec ID : 2000
Duration : 43mn 34s
Bit rate mode : Constant
Bit rate : 192 Kbps
Channel(s) : 2 channels
Channel positions : Front: L R
Sampling rate : 48.0 KHz
Bit depth : 16 bits
Stream size : 59.8 MiB (8%)
Alignment : Split accross interleaves
Interleave, duration : 40 ms (1.00 video frame)
Interleave, preload duration : 500 ms

pb.wtf



Скачать Тринадцатый через торрент http://pic.kartinco.top/images/3/t1z7m483ml.jpg Скачать фильм Тринадцатый через торрент бесплантно в хорошем качестве Описание: Первая в США женщина-президент убита метким снайперским выстрелом во время выступления в День ветеранов. Убийца не найден. Вскоре ... 8.9 10 15
Info! Золотая раздача, скачанное не засчитывается.
Торрент: Зарегистрирован [2013-09-09 16:43] · скачан: 201 раз
Статус: √ проверено
Размер: 9.45 GB
Как cкачать? Как скачать Тринадцатый через торрент | qTorrent

% Раздел Тема Автор DL S | L
Зарубежные сериалы [ 9.72 GB ] Тринадцатый / XIII / Сезон: 2 / Серии: 1-13 из 13 [2013 HDRip] DVO Original Assasinca Скачать
1 | 0
Зарубежные сериалы [ 1.96 GB ] Тринадцатый / XIII: The Series [2011 HDRip] / Novafilm piloter Скачать
1 | 0


Последний раз редактировалось: Assasinca (2013-09-09 16:58), всего редактировалось 4 раз(а)

28-11-2019 20:33  

Отключить всю рекламу на сайте

09-09-2013 16:46 Тринадцатый Скачать торрент  

Assasinca
Список серий добавьте плиз.pb.wtf



09-09-2013 22:15 Тринадцатый Скачать торрент  

игра такая была от ubisoft в 2004 году pb.wtf



20-10-2013 18:00 Тринадцатый Скачать торрент  

А че с переводом?! Я первую серию запускаю, а там английские голоса по громкости превосходят русские...в итоге получается, что русскую речь расслышать нереально...каждую минуту приходится перематывать, чтобы расслышать о чем только что был диалог...а написано "Профессиональный двухголосый"...нормального перевода не предвидится?pb.wtf



20-10-2013 18:23 Тринадцатый Скачать торрент  

maxim11
не используйте для просмотра WindowsMediaPlayerpb.wtf



21-10-2013 08:58 Тринадцатый Скачать торрент  

Messa-fan писал(а):

maxim11
не используйте для просмотра WindowsMediaPlayer

Спасибо, помоглоpb.wtf



    Дорогой пользователь! Огромная просьба, поблагодарите релизера, оцените раздачу и оставьте свои комментарий, если Вы скачали Тринадцатый через торрент бесплатно! Внесите свою лепту в развитие PiratBit!
    Комментировать посты могут только пользователи прошедшие не сложную регистрацию
    Показать сообщения:    

    Тринадцатый через торрент
    Скачать бесплатно Тринадцатый
    Тринадцатый скачать торрент
    Тринадцатый смотреть онлайн
    Cкачать фильм Тринадцатый бесплатно
    Тринадцатый скачать торрент в хорошем качестве
    Тринадцатый смотреть онлайн бесплатно в хорошем качестве


    Вы не можете начинать темы
    Вы не можете отвечать на сообщения
    Вы не можете редактировать свои сообщения
    Вы не можете удалять свои сообщения
    Вы не можете голосовать в опросах
    Вы не можете прикреплять файлы к сообщениям
    Вы можете скачивать файлы