2 сезон

iTunes

MVO

1

2 сезон

iTunes

iTunes

1 сезон

RePack

30

Ultimate

ВАЖНО

ИГРА 18+

pack

RePack

MK11
pack

Легкие деньги

RePack

jed

RePack

fifa19

RePack

RDR2

RePack

NEED FOR SPEED™ PAYBACK

4 сезон

9 сезон

Бесстыжие 9 сезон

Все сериалы

все сериалы на PB.wtf

RePack

FAR CRY 5

Anonymous, доброй ночи, мы не успеваем собрать деньги на оплату серверов за декабрь и январь, помогите нам пожалуйста в это трудное время. В качестве благодарности мы отключим Вам всю рекламу на сайте (укажите свой ник в строку Ваше имя)!

×
  
Magnet ссылка

Зажигание / Combustión (Даниэль Кальпарсоро / Daniel Calparsoro) [2013, Испания, мелодрама, приключения, боевик, HDRip, Дубляж [ лицензия ] pb.wtf

Зажигание через торрент pb.wtf

Размер: 1.37 GB | Добавлен: 7 лет 4 мес. назад | Торрент скачан:763 раза
Скачать  

02-09-2013 23:42 Зажигание Скачать торрент  

Зажигание / Combustión

«И вспыхнет страсть»

  • Год выпуска:2013
  • Страна:Испания
  • Жанр:мелодрама, приключения, боевик
  • Продолжительность: 01:43:37
  • Перевод:Профессиональный (полное дублирование) [лицензия]

  • Субтитры: Нет
    • Режиссер:Даниэль Кальпарсоро / Daniel Calparsoro
    • Сценарий: Карлос Монтеро / Carlos Montero, Джейм Вака / Jaime Vaca
    • Продюсер: Мерседес Гамеро / Mercedes Gamero, Франсиско Рамос / Francisco Ramos, Хуан Карлос Каро / Juan Carlos Caro, Энеко Гутьеррез / Eneko Gutiérrez

  • В ролях:Алекс Гонсалес (Mikel), Адриана Угарте (Ari), Альберто Амман (Navas), Мария Кастро (Julia), Луис Саера, Марта Ниэто, Кристиан Мулас (Nano), Хуан Пабло Шук, Мария Каласса (Chica Despedida 1)
    • Описание:
      Навас и Ари - идеальная пара и профессиональные мошенники. Она - роковая красотка, соблазняющая богатых мужчин, а он - жестокий налетчик, который их грабит. Все меняется, когда Навас и Ари выбирают себе новую жертву - богатенького красавчика Микеля, в которого Ари влюбляется без памяти...

  • Рейтинг
    kinopoisk.ru: 6.097 (868)
    imdb.com: 4.70 (212)
    • Качество:HDRip
    • Формат:AVI
    • Видео кодек: XviD
    • Аудио кодек:AC3
    • Видео: XviD, 720x304 (2.35:1), 1430 kbps, 24 fps, 0,272 bpp
    • Аудио: AC3 / 5.1 / 48 kHz / 448 kbps / 16 bit


    General
    Complete name : D:ТорентыZazhyganie.2013.D.HDRip.1400MB.avi
    Format : AVI
    Format/Info : Audio Video Interleave
    File size : 1.37 GiB
    Duration : 1h 43mn
    Overall bit rate : 1 888 Kbps
    Writing application : VirtualDubMod 1.5.10.2 (build 2540/release)
    Writing library : VirtualDubMod build 2540/release

    Video
    ID : 0
    Format : MPEG-4 Visual
    Format profile : Advanced Simple@L5
    Format settings, BVOP : 2
    Format settings, QPel : No
    Format settings, GMC : No warppoints
    Format settings, Matrix : Default (H.263)
    Codec ID : XVID
    Codec ID/Hint : XviD
    Duration : 1h 43mn
    Bit rate : 1 431 Kbps
    Width : 720 pixels
    Height : 304 pixels
    Display aspect ratio : 2.35:1
    Frame rate : 24.000 fps
    Color space : YUV
    Chroma subsampling : 4:2:0
    Bit depth : 8 bits
    Scan type : Progressive
    Compression mode : Lossy
    Bits/(Pixel*Frame) : 0.272
    Stream size : 1.04 GiB (76%)
    Writing library : XviD 1.2.1 (UTC 2008-12-04)

    Audio
    ID : 1
    Format : AC-3
    Format/Info : Audio Coding 3
    Mode extension : CM (complete main)
    Codec ID : 2000
    Duration : 1h 43mn
    Bit rate mode : Constant
    Bit rate : 448 Kbps
    Channel(s) : 6 channels
    Channel positions : Front: L C R, Side: L R, LFE
    Sampling rate : 48.0 KHz
    Bit depth : 16 bits
    Compression mode : Lossy
    Stream size : 332 MiB (24%)
    Alignment : Split accross interleaves
    Interleave, duration : 42 ms (1.00 video frame)
    Interleave, preload duration : 500 ms

    • В фильме герой Алекса Гонсалеса Микель бросает ради Ари (Адриана Угарте) свою невесту. Похожие события произошли и в реальной жизни Алекса - после съемок фильма «Зажигание» он разорвал свою помолвку с сестрой Пенелопы Крус - испанской актрисой Моникой Крус.

    © Оформление by Vetalpb.wtf



  • Скачать Зажигание через торрент http://i1.imageban.ru/out/2013/09/03/d3e472d07dec5798ca7386d16755abb7.png Скачать фильм Зажигание через торрент бесплантно в хорошем качестве Описание:Навас и Ари - идеальная пара и профессиональные мошенники. Она - роковая красотка, соблазняющая богатых мужчин, а он - жестокий ... 9.1 10 32
    Info! Золотая раздача, скачанное не засчитывается.
    Торрент: Зарегистрирован [2013-09-09 18:28] · скачан: 763 раз
    Статус: √ проверено
    Размер: 1.37 GB
    Как cкачать? Как скачать Зажигание через торрент | UTorrent

    % Раздел Тема Автор DL S | L
    Фильмы 2013 [DVDrip, WEB-DLRip, HDrip] [ 1.45 GB ] Зажигание / Combustión [2013 Испания BDRip-AVC] [SPA-Transfer] Dub + Sub sokol_ok Скачать
    2 | 0
    Фильмы 2013 [DVDrip, WEB-DLRip, HDrip] [ 744 MB ] Зажигание / Combustión [2013 Испания BDRip-AVC] [SPA-Transfer] Dub + Sub sokol_ok Скачать
    2 | 0
    Фильмы [HD 720p, 1080p] (Хороший звук DUB, MVO) [ 10.21 GB ] Зажигание / Combustión [2013 BDRip 1080р DUB] [] лисяра Скачать
    1 | 0
    Фильмы 2013 [DVDrip, WEB-DLRip, HDrip] [ 2.46 GB ] Зажигание / Combustión [2013 Испания BDRip-AVC [ лицензия ] Ворон Скачать
    1 | 0
    Фильмы 2013 [DVDrip, WEB-DLRip, HDrip] [ 2.05 GB ] Зажигание / Combustión [2013 Испания HDRip [ лицензия ] Ворон Скачать
    1 | 0

    28-11-2019 20:33  

    Отключить всю рекламу на сайте

      Дорогой пользователь! Огромная просьба, поблагодарите релизера, оцените раздачу и оставьте свои комментарий, если Вы скачали Зажигание через торрент бесплатно! Внесите свою лепту в развитие PiratBit!
      Комментировать посты могут только пользователи прошедшие не сложную регистрацию
      Показать сообщения:    

      Зажигание через торрент
      Скачать бесплатно Зажигание
      Зажигание скачать торрент
      Зажигание смотреть онлайн
      Cкачать фильм Зажигание бесплатно
      Зажигание скачать торрент в хорошем качестве
      Зажигание смотреть онлайн бесплатно в хорошем качестве


      Вы не можете начинать темы
      Вы не можете отвечать на сообщения
      Вы не можете редактировать свои сообщения
      Вы не можете удалять свои сообщения
      Вы не можете голосовать в опросах
      Вы не можете прикреплять файлы к сообщениям
      Вы можете скачивать файлы