Ссылка на приватное зеркало нашего сайта всего за 1$. Внимание количество ограничено!!!

2 сезон

iTunes

1 сезон

1

iTunes

iTunes

iTunes

1 сезон

RePack

30

ИГРА 18+

pack

ВАЖНО

!!Акция!!

Alien_RageХит недели

RePack

MK11
pack

Забери бонус

RePack

jed

!!Акция!!

Alien_Rage

RePack

fifa19

RePack

Assassins Creed: Odyssey

RePack

NEED FOR SPEED™ PAYBACK

4 сезон

9 сезон

Бесстыжие 9 сезон

Все сериалы

все сериалы на PB.wtf

RePack

FAR CRY 5
  

Зажигание / Combustion (Даниэль Кальпарсоро) [2013 г., мелодрама, приключения, боевик, BDRip 720p, DUB, Original, Sub] pb.wtf

Зажигание через торрент pb.wtf

Размер: 6.38 GB | Добавлен: 7 лет 1 мес. назад | Торрент скачан:98 раз
Скачать  

06-09-2013 08:05 Зажигание Скачать торрент  

Зажигание / Combustion
Год выпуска: 2013
Страна: Испания
Жанр: мелодрама, приключения, боевик,
Продолжительность: 01:43:37
Перевод: Дубляж
Субтитры: Russian, English

Режиссер: Даниэль Кальпарсоро



В ролях: Алекс Гонсалес, Адриана Угарте, Альберто Амман, Мария Кастро, Луис Саера, Марта Ниэто, Кристиан Мулас, Хуан Пабло Шук, Мария Каласса,

Описание: Навас и Ари — идеальная пара и профессиональные мошенники. Она — роковая красотка, соблазняющая богатых мужчин, а он — жестокий налетчик, который их грабит. Все меняется, когда Навас и Ари выбирают себе новую жертву — богатенького красавчика Микеля, в которого Ари влюбляется без памяти…

Релиз подготовлен:

Качество: BDRip 720p
Формат: MKV
Видео кодек: AVC
Аудио кодек: DTS
Видео: 1280x544 at 24.000 fps (True24p), x264@L4.1, ~5623 kbps avg
Аудио#1: Russian: 48 kHz/16-bit, DTS, 3/2 (L,C,R,l,r) + LFE ch, ~1509.00 kbps avg |Дубляж, Blu-Ray RUS|
Аудио#2: Spanish: 48 kHz/24-bit, DTS, 3/2 (L,C,R,l,r) + LFE ch, ~1509.00 kbps avg




General
Complete name : Combustion.2013.720p.BluRay.Rus.Spa.HDCLUB.mkv
Format : Matroska
File size : 6.38 GiB
Duration : 1h 43mn
Overall bit rate : 8 817 Kbps

Encoded date : UTC 2013-09-04 19:29:12
Writing application : mkvmerge v5.8.0 ('No Sleep / Pillow') built on Sep 2 2012 15:37:04
Writing library : libebml v1.2.3 + libmatroska v1.3.0

Video
ID : 1
Format : AVC
Format/Info : Advanced Video Codec
Format profile : High@L4.1
Format settings, CABAC : Yes
Format settings, ReFrames : 11 frames
Muxing mode : Container profile=Unknown@4.1
Codec ID : V_MPEG4/ISO/AVC
Duration : 1h 43mn
Bit rate : 5 622 Kbps
Width : 1 280 pixels
Height : 544 pixels
Display aspect ratio : 2.35:1
Frame rate : 24.000 fps
Color space : YUV
Chroma subsampling : 4:2:0
Bit depth : 8 bits
Scan type : Progressive
Bits/(Pixel*Frame) : 0.336
Stream size : 4.07 GiB (64%)
Title : Combustion 2013
Language : Spanish

Audio #1
ID : 2
Format : DTS
Format/Info : Digital Theater Systems
Codec ID : A_DTS
Duration : 1h 43mn
Bit rate mode : Constant
Bit rate : 1 510 Kbps
Channel(s) : 6 channels
Channel positions : Front: L C R, Side: L R, LFE
Sampling rate : 48.0 KHz
Bit depth : 16 bits
Stream size : 1.09 GiB (17%)
Title : DTS 5.1 @ 1509 kbps - Dubbed [BD RUS]
Language : Russian

Audio #2
ID : 3
Format : DTS
Format/Info : Digital Theater Systems
Codec ID : A_DTS
Duration : 1h 43mn
Bit rate mode : Constant
Bit rate : 1 510 Kbps
Channel(s) : 6 channels
Channel positions : Front: L C R, Side: L R, LFE
Sampling rate : 48.0 KHz
Bit depth : 24 bits
Stream size : 1.09 GiB (17%)
Title : DTS 5.1 @ 1509 kbps
Language : Spanish

Text #1
ID : 4
Format : UTF-8
Codec ID : S_TEXT/UTF8
Codec ID/Info : UTF-8 Plain Text
Language : Russian

Text #2
ID : 5
Format : UTF-8
Codec ID : S_TEXT/UTF8
Codec ID/Info : UTF-8 Plain Text

Menu
00:00:00.000 : en:00:00:00.000
00:08:06.292 : en:00:08:06.292
00:17:20.083 : en:00:17:20.083
00:25:45.208 : en:00:25:45.208
00:34:20.708 : en:00:34:20.708
00:43:27.708 : en:00:43:27.708
00:51:47.500 : en:00:51:47.500
01:00:54.750 : en:01:00:54.750
01:09:25.500 : en:01:09:25.500
01:16:57.750 : en:01:16:57.750
01:27:00.292 : en:01:27:00.292
01:35:02.208 : en:01:35:02.208


Зажигание скачать торрент


pb.wtf



Скачать Зажигание через торрент http://pic.kartinco.top/images/3/bjp4kq4pu7.jpg Скачать фильм Зажигание через торрент бесплантно в хорошем качестве Описание: Навас и Ари — идеальная пара и профессиональные мошенники. Она — роковая красотка, соблазняющая богатых мужчин, а он — жестокий ... 8.6 10 7
Info! Золотая раздача, скачанное не засчитывается.
Торрент: Зарегистрирован [2013-09-09 18:30] · скачан: 98 раз
Статус: √ проверено
Размер: 6.38 GB
Как cкачать? Как скачать Зажигание через торрент | qTorrent

% Раздел Тема Автор DL S | L
Фильмы [HD 720p, 1080p] (Хороший звук DUB, MVO) [ 10.99 GB ] Зажигание / Combustion [2013 BDRip 1080p by msltel] DUB msltel Скачать
1 | 0
Фильмы 2013 [DVDrip, WEB-DLRip, HDrip] [ 1.91 GB ] Зажигание / Combustion [2013 BDRip AVC by msltel] DUB msltel Скачать
1 | 0
Фильмы [HD 720p, 1080p] (Хороший звук DUB, MVO) [ 3.46 GB ] Зажигание / Combustion [2013 BDRip 720p by msltel] DUB msltel Скачать
1 | 0
Фильмы (DVD фильмы) [ 7.04 GB ] Зажигание / Combustion [2013 DVD9] R5 voovaz Скачать
1 | 0

28-11-2019 20:33  

Отключить всю рекламу на сайте

06-09-2013 17:04 Зажигание Скачать торрент  

хороший фильм ))pb.wtf



06-09-2013 17:24 Зажигание Скачать торрент  

Согласен полностью что фильм. но никак не хороший. лажа сплошная. смотрел вчера с женой,тупо потерянное время.pb.wtf



06-09-2013 18:18 Зажигание Скачать торрент  

Неплохой фильм, с женой посмотрели с удовольствием!pb.wtf



10-09-2013 23:38 Зажигание Скачать торрент  

Фильм хороший, советую!pb.wtf



    Дорогой пользователь! Огромная просьба, поблагодарите релизера, оцените раздачу и оставьте свои комментарий, если Вы скачали Зажигание через торрент бесплатно! Внесите свою лепту в развитие PiratBit!
    Комментировать посты могут только пользователи прошедшие не сложную регистрацию
    Показать сообщения:    

    Зажигание через торрент
    Скачать бесплатно Зажигание
    Зажигание скачать торрент
    Зажигание смотреть онлайн
    Cкачать фильм Зажигание бесплатно
    Зажигание скачать торрент в хорошем качестве
    Зажигание смотреть онлайн бесплатно в хорошем качестве


    Вы не можете начинать темы
    Вы не можете отвечать на сообщения
    Вы не можете редактировать свои сообщения
    Вы не можете удалять свои сообщения
    Вы не можете голосовать в опросах
    Вы не можете прикреплять файлы к сообщениям
    Вы можете скачивать файлы