Ссылка на приватное зеркало нашего сайта всего за 1$. Внимание количество ограничено!!!

2 сезон

iTunes

1 сезон

1

iTunes

iTunes

iTunes

1 сезон

RePack

30

ИГРА 18+

pack

ВАЖНО

!!Акция!!

Alien_RageХит недели

RePack

MK11
pack

Забери бонус

RePack

jed

!!Акция!!

Alien_Rage

RePack

fifa19

RePack

Assassins Creed: Odyssey

RePack

NEED FOR SPEED™ PAYBACK

4 сезон

9 сезон

Бесстыжие 9 сезон

Все сериалы

все сериалы на PB.wtf

RePack

FAR CRY 5
  

Эйс Вентура 2: Когда зовет природа / Ace Ventura 2: When Nature Calls (Стив Одекерк) [1995 г., комедия, детектив, приключения, BDRip 1080p, Дубляж] pb.wtf

Эйс Вентура 2: Когда зовет природа через торрент pb.wtf

Размер: 11.49 GB | Добавлен: 7 лет 1 мес. назад | Торрент скачан:171 раз
Скачать  

10-09-2013 19:10 Эйс Вентура 2: Когда зовет природа Скачать торрент  

Эйс Вентура 2: Когда зовет природа / Ace Ventura 2: When Nature Calls
Год выпуска: 1995
Страна: США
Жанр: комедия, детектив, приключения,
Продолжительность: 01:34:03
Перевод: Дубляж+(Варус Видео)+ (D2lab)+ (THT)+ (П.Санаев)+(С.Визгунов)
+ (М.Латышев)+ (Ю.Живов)+(Оригинал)
Субтитры: Русские, Английские

Режиссер: Стив Одекерк

В ролях: Джим Керри, Иэн МакНис, Саймон Кэллоу, Мейнард Эзиаши, Боб Гантон, Софи Оконедо, Томми Дэвидсон, Адевале Акинойе-Агбаже, Дэнни Д. Дэниелс, Сэм Мотоана Филлипс,

Описание: Место действия — Африка. Знаменитый детектив Эйс Вентура, единственный в мире специалист по розыску пропавших домашних любимцев, снова в деле. На этот раз Эйс должен найти Шикаку — священное животное племени Вачати. Без Шикаки не может состояться свадьба дочери вождя племени Вачати и сына вождя воинственного племени Вачуту.
Если Эйс провалит задание, начнется межплеменная война. Но Эйс Вентура не из тех, кто отступает перед трудностями. В поисках священной Шикаки он сражается с аллигаторами, приручает слонов, подражает обезьянам, качается на лианах, ходит по раскаленным углям, вылезает, к ужасу семьи американских туристов, из задницы носорога и ставит «на уши» всю Африку.

Качество: BDRip 1080p
Формат: MKV
Видео кодек: H.264
Аудио кодек: AC3
Видео: (1920x800), 23.976 fps,10.8 Mbps
Аудио#1: AC-3, 6 ch, 384 kbps (Rus) 48.0 KHz (Дубляж)
Аудио#2: AC-3, 2 ch,192 kbps (Rus) 48.0 KHz (Варус Видео)
Аудио#3: DTS, 6 ch, 755 kbps (Rus) 48.0 KHz (D2lab)
Аудио#4: AC-3, 2 ch, 192 kbps (Rus) 48.0 KHz (THT)
Аудио#5:DTS-HD MA, 5 ch, 3787 kbps (Rus) 48.0 KHz (П.Санаев)
Аудио#6: AC-3, 6 ch, 448 kbps (Rus) 48.0 KHz (С.Визгунов)
Аудио#7: AC-3, 6 ch, 384 kbps (Rus) 48.0 KHz (М.Латышев)
Аудио#8: AC-3, 2 ch, 192 kbps (Rus) 48.0 KHz (Ю.Живов)
Аудио#9: AC-3, 5 ch, 384 kbps (Rus) 48.0 KHz (Оригинал)

General
Complete name : Ace.Ventura.II.Kogda.zovet.priroda.1995.BDRip.1080p.mkv
Format : Matroska
File size : 11.5 GiB
Duration : 1h 34mn
Overall bit rate : 17.5 Mbps
Encoded date : UTC 2013-09-04 03:53:53
Writing application : mkvmerge v6.3.0 ('You can't stop me!') built on Jun 28 2013 20:09:41
Writing library : libebml v1.3.0 + libmatroska v1.4.0

Video
ID : 1
Format : AVC
Format/Info : Advanced Video Codec
Format profile : High@L4.1
Format settings, CABAC : Yes
Format settings, ReFrames : 4 frames
Muxing mode : Container profile=Unknown@4.1
Codec ID : V_MPEG4/ISO/AVC
Duration : 1h 34mn
Nominal bit rate : 10.8 Mbps
Width : 1 920 pixels
Height : 800 pixels
Display aspect ratio : 2.40:1
Frame rate : 23.976 fps
Color space : YUV
Chroma subsampling : 4:2:0
Bit depth : 8 bits
Scan type : Progressive
Bits/(Pixel*Frame) : 0.292
Writing library : x264 core 138 r2358 9e941d1
Encoding settings : cabac=1 / ref=4 / deblock=1:-1:-1 / analyse=0x3:0x113 / me=umh / subme=10 / psy=1 / psy_rd=1.00:0.00 / mixed_ref=1 / me_range=48 / chroma_me=1 / trellis=2 / 8x8dct=1 / cqm=0 / deadzone=21,11 / fast_pskip=0 / chroma_qp_offset=-2 / threads=6 / lookahead_threads=1 / sliced_threads=0 / nr=0 / decimate=1 / interlaced=0 / bluray_compat=0 / constrained_intra=0 / bframes=10 / b_pyramid=2 / b_adapt=2 / b_bias=0 / direct=3 / weightb=1 / open_gop=0 / weightp=2 / keyint=240 / keyint_min=24 / scenecut=40 / intra_refresh=0 / rc_lookahead=50 / rc=2pass / mbtree=0 / bitrate=10763 / ratetol=2.0 / qcomp=1.00 / qpmin=0 / qpmax=51 / qpstep=4 / cplxblur=20.0 / qblur=0.5 / vbv_maxrate=50000 / vbv_bufsize=62500 / nal_hrd=none / ip_ratio=1.40 / pb_ratio=1.30 / aq=1:1.00
Color primaries : BT.709-5, BT.1361, IEC 61966-2-4, SMPTE RP177
Transfer characteristics : BT.709-5, BT.1361
Matrix coefficients : BT.709-5, BT.1361, IEC 61966-2-4 709, SMPTE RP177

Audio #1
ID : 2
Format : AC-3
Format/Info : Audio Coding 3
Mode extension : CM (complete main)
Codec ID : A_AC3
Duration : 1h 34mn
Bit rate mode : Constant
Bit rate : 384 Kbps
Channel(s) : 6 channels
Channel positions : Front: L C R, Side: L R, LFE
Sampling rate : 48.0 KHz
Bit depth : 16 bits
Stream size : 258 MiB (2%)
Title : Дубляж
Language : Russian

Audio #2
ID : 3
Format : AC-3
Format/Info : Audio Coding 3
Mode extension : CM (complete main)
Codec ID : A_AC3
Duration : 1h 34mn
Bit rate mode : Constant
Bit rate : 192 Kbps
Channel(s) : 2 channels
Channel positions : Front: L R
Sampling rate : 48.0 KHz
Bit depth : 16 bits
Stream size : 129 MiB (1%)
Title : MVO - Варус Видео
Language : Russian

Audio #3
ID : 4
Format : DTS
Format/Info : Digital Theater Systems
Codec ID : A_DTS
Duration : 1h 34mn
Bit rate mode : Constant
Bit rate : 755 Kbps
Channel(s) : 6 channels
Channel positions : Front: L C R, Side: L R, LFE
Sampling rate : 48.0 KHz
Bit depth : 24 bits
Stream size : 508 MiB (4%)
Title : DVO - D2lab
Language : Russian

Audio #4
ID : 5
Format : AC-3
Format/Info : Audio Coding 3
Mode extension : CM (complete main)
Codec ID : A_AC3
Duration : 1h 34mn
Bit rate mode : Constant
Bit rate : 192 Kbps
Channel(s) : 2 channels
Channel positions : Front: L R
Sampling rate : 48.0 KHz
Bit depth : 16 bits
Stream size : 129 MiB (1%)
Title : DVO - THT
Language : Russian

Audio #5
ID : 6
Format : DTS
Format/Info : Digital Theater Systems
Format profile : MA
Codec ID : A_DTS
Duration : 1h 34mn
Bit rate mode : Variable
Channel(s) : 5 channels
Channel positions : Front: L C R, Side: L R
Sampling rate : 48.0 KHz
Bit depth : 24 bits
Title : АVO - П.Санаев
Language : Russian

Audio #6
ID : 7
Format : AC-3
Format/Info : Audio Coding 3
Mode extension : CM (complete main)
Codec ID : A_AC3
Duration : 1h 34mn
Bit rate mode : Constant
Bit rate : 448 Kbps
Channel(s) : 6 channels
Channel positions : Front: L C R, Side: L R, LFE
Sampling rate : 48.0 KHz
Bit depth : 16 bits
Stream size : 301 MiB (3%)
Title : АVO - С.Визгунов
Language : Russian

Audio #7
ID : 8
Format : AC-3
Format/Info : Audio Coding 3
Mode extension : CM (complete main)
Codec ID : A_AC3
Duration : 1h 34mn
Bit rate mode : Constant
Bit rate : 384 Kbps
Channel(s) : 6 channels
Channel positions : Front: L C R, Side: L R, LFE
Sampling rate : 48.0 KHz
Bit depth : 16 bits
Stream size : 258 MiB (2%)
Title : АVO - М.Латышев
Language : Russian

Audio #8
ID : 9
Format : AC-3
Format/Info : Audio Coding 3
Mode extension : CM (complete main)
Codec ID : A_AC3
Duration : 1h 34mn
Bit rate mode : Constant
Bit rate : 192 Kbps
Channel(s) : 2 channels
Channel positions : Front: L R
Sampling rate : 48.0 KHz
Bit depth : 16 bits
Stream size : 129 MiB (1%)
Title : АVO - Ю.Живов
Language : Russian

Audio #9
ID : 10
Format : AC-3
Format/Info : Audio Coding 3
Mode extension : CM (complete main)
Codec ID : A_AC3
Duration : 1h 34mn
Bit rate mode : Constant
Bit rate : 384 Kbps
Channel(s) : 5 channels
Channel positions : Front: L C R, Side: L R
Sampling rate : 48.0 KHz
Bit depth : 16 bits
Stream size : 258 MiB (2%)

Text #1
ID : 11
Format : UTF-8
Codec ID : S_TEXT/UTF8
Codec ID/Info : UTF-8 Plain Text
Language : Russian

Text #2
ID : 12
Format : UTF-8
Codec ID : S_TEXT/UTF8
Codec ID/Info : UTF-8 Plain Text

Menu
00:00:00.000 : en:00:00:00.000
00:02:58.845 : en:00:02:58.845
00:03:55.902 : en:00:03:55.902
00:06:01.194 : en:00:06:01.194
00:10:51.860 : en:00:10:51.860
00:12:26.204 : en:00:12:26.204
00:14:20.401 : en:00:14:20.401
00:16:59.018 : en:00:16:59.018
00:18:51.213 : en:00:18:51.213
00:21:47.973 : en:00:21:47.973
00:24:27.633 : en:00:24:27.633
00:26:48.440 : en:00:26:48.440
00:32:21.648 : en:00:32:21.648
00:34:37.993 : en:00:34:37.993
00:35:29.044 : en:00:35:29.044
00:39:14.894 : en:00:39:14.894
00:41:31.030 : en:00:41:31.030
00:43:40.535 : en:00:43:40.535
00:47:15.124 : en:00:47:15.124
00:50:22.144 : en:00:50:22.144
00:51:53.736 : en:00:51:53.736
00:55:13.644 : en:00:55:13.644
00:56:37.769 : en:00:56:37.769
00:58:41.685 : en:00:58:41.685
01:00:32.337 : en:01:00:32.337
01:03:02.904 : en:01:03:02.904
01:04:08.511 : en:01:04:08.511
01:06:58.640 : en:01:06:58.640
01:09:26.829 : en:01:09:26.829
01:12:25.591 : en:01:12:25.591
01:17:27.810 : en:01:17:27.810
01:17:48.497 : en:01:17:48.497
01:20:09.930 : en:01:20:09.930
01:22:44.459 : en:01:22:44.459
01:25:32.127 : en:01:25:32.127
01:26:43.031 : en:01:26:43.031
01:34:03.346 : en:01:34:03.346

pb.wtf



Скачать Эйс Вентура 2: Когда зовет природа через торрент http://pic.kartinco.top/images/3/miydph6g46.jpg Скачать фильм Эйс Вентура 2: Когда зовет природа через торрент бесплантно в хорошем качестве Описание: Место действия — Африка. Знаменитый детектив Эйс Вентура, единственный в мире специалист по розыску пропавших домашних любимцев, ... 9.4 10 14
Info! Золотая раздача, скачанное не засчитывается.
Торрент: Зарегистрирован [2013-09-10 19:10] · скачан: 171 раз
Статус: √ проверено
Размер: 11.49 GB
Как cкачать? Как скачать Эйс Вентура 2: Когда зовет природа через торрент | qTorrent

% Раздел Тема Автор DL S | L
Фильмы до 2000 г. [ 1.58 GB ] Эйс Вентура 2: Когда зовет природа / Ace Ventura: When Nature Calls [1995 HDTVRip] DUB + MVO sokol_ok Скачать
2 | 0

28-11-2019 20:33  

Отключить всю рекламу на сайте

19-02-2019 12:28 Эйс Вентура 2: Когда зовет природа Скачать торрент  

один из лучших фильмов Джимаpb.wtf



    Дорогой пользователь! Огромная просьба, поблагодарите релизера, оцените раздачу и оставьте свои комментарий, если Вы скачали Эйс Вентура 2: Когда зовет природа через торрент бесплатно! Внесите свою лепту в развитие PiratBit!
    Комментировать посты могут только пользователи прошедшие не сложную регистрацию
    Показать сообщения:    

    Эйс Вентура 2: Когда зовет природа через торрент
    Скачать бесплатно Эйс Вентура 2: Когда зовет природа
    Эйс Вентура 2: Когда зовет природа скачать торрент
    Эйс Вентура 2: Когда зовет природа смотреть онлайн
    Cкачать фильм Эйс Вентура 2: Когда зовет природа бесплатно
    Эйс Вентура 2: Когда зовет природа скачать торрент в хорошем качестве
    Эйс Вентура 2: Когда зовет природа смотреть онлайн бесплатно в хорошем качестве


    Вы не можете начинать темы
    Вы не можете отвечать на сообщения
    Вы не можете редактировать свои сообщения
    Вы не можете удалять свои сообщения
    Вы не можете голосовать в опросах
    Вы не можете прикреплять файлы к сообщениям
    Вы можете скачивать файлы