2 сезон

iTunes

MVO

1

2 сезон

iTunes

iTunes

1 сезон

RePack

30

Ultimate

ВАЖНО

ИГРА 18+

pack

RePack

MK11
pack

Легкие деньги

RePack

jed

RePack

fifa19

RePack

RDR2

RePack

NEED FOR SPEED™ PAYBACK

4 сезон

9 сезон

Бесстыжие 9 сезон

Все сериалы

все сериалы на PB.wtf

RePack

FAR CRY 5

Anonymous, доброй ночи, мы не успеваем собрать деньги на оплату серверов за декабрь и январь, помогите нам пожалуйста в это трудное время. В качестве благодарности мы отключим Вам всю рекламу на сайте (укажите свой ник в строку Ваше имя)!

×
  
Magnet ссылка

Уличные танцы 3: Все звезды / All Stars (Бен Грегор / Ben Gregor) [2013, Великобритания, комедия, семейный, HDRip, Дубляж [лицензия] pb.wtf

Уличные танцы 3: Все звезды через торрент pb.wtf

Размер: 1.46 GB | Добавлен: 7 лет 4 мес. назад | Торрент скачан:842 раза
Скачать  

10-09-2013 21:00 Уличные танцы 3: Все звезды Скачать торрент  

Уличные танцы 3: Все звезды / All Stars

«Шесть френдов. Одна команда. Грандиозное шоу. Победа без вариантов!»

  • Год выпуска:2013
  • Страна:Великобритания
  • Жанр:комедия, семейный
  • Продолжительность: 01:42:49
  • Перевод:Профессиональный (полное дублирование) [лицензия]

  • Субтитры: Нет
    • Режиссер:Бен Грегор / Ben Gregor
    • Сценарий: Пол Герстенбергер / Paul Gerstenberger
    • Продюсер: Аллан Нибло / Allan Niblo, Джеймс Ричардсон / James Richardson, Джим Спенсер / Jim Spencer, Луиза Киллин / Louise Killin

  • В ролях:Тео Стивенсон (Ethan), Акай Осей-Мэнсфилд (Jaden), Флер Хаудейк (Amy), Доминик Герман-Дэй (Tim), Амелия Кларксон (Rebecca), Гамал Тосифа (Brian), Эшли Дженсен (Gina), Хью Дэннис (Mr. Hart), Кевин Бишоп (Andy), Эшли Уолтерс (Mark), Ханаэ Аткинс (Lucy), Саммер Дэвис (Sadie)
    • Описание:
      Герой фильма, энергичный и бойкий Этан, объединяется со скромным профессиональным стритдансером Джейденом для участия в очередном чемпионате по уличным танцам. Только своей победой ребята смогут спасти свой молодежный клуб от закрытия. И они сделают это, во что бы то ни стало...

  • Рейтинг
    kinopoisk.ru: 5.087 (260)
    imdb.com: 3.60 (309)
    • Качество:HDRip
    • Формат:AVI
    • Видео кодек: XviD
    • Аудио кодек:AC3
    • Видео: XviD, 720x384 (1.875), 1572 kbps, 23,976 fps, 0,237 bpp
    • Аудио: AC3 / 5.1 / 48 kHz / 448 kbps / 16 bit


    General
    Complete name : D:ТорентыUli4nye.tancy.3.Vse.v.zvezdy.2013.D.HDRip.INTERCINEMA.avi
    Format : AVI
    Format/Info : Audio Video Interleave
    File size : 1.46 GiB
    Duration : 1h 42mn
    Overall bit rate : 2 029 Kbps
    Writing application : VirtualDubModRus 1.5.10.2 (build 2542/release)
    Writing library : VirtualDubMod build 2542/release

    Video
    ID : 0
    Format : MPEG-4 Visual
    Format profile : Advanced Simple@L5
    Format settings, BVOP : 1
    Format settings, QPel : No
    Format settings, GMC : No warppoints
    Format settings, Matrix : Custom
    Codec ID : XVID
    Codec ID/Hint : XviD
    Duration : 1h 42mn
    Bit rate : 1 572 Kbps
    Width : 720 pixels
    Height : 384 pixels
    Display aspect ratio : 1.875
    Frame rate : 23.976 fps
    Color space : YUV
    Chroma subsampling : 4:2:0
    Bit depth : 8 bits
    Scan type : Progressive
    Compression mode : Lossy
    Bits/(Pixel*Frame) : 0.237
    Stream size : 1.13 GiB (77%)
    Writing library : XviD 73

    Audio
    ID : 1
    Format : AC-3
    Format/Info : Audio Coding 3
    Mode extension : CM (complete main)
    Codec ID : 2000
    Duration : 1h 42mn
    Bit rate mode : Constant
    Bit rate : 448 Kbps
    Channel(s) : 6 channels
    Channel positions : Front: L C R, Side: L R, LFE
    Sampling rate : 48.0 KHz
    Bit depth : 16 bits
    Compression mode : Lossy
    Stream size : 329 MiB (22%)
    Alignment : Split accross interleaves
    Interleave, duration : 42 ms (1.00 video frame)
    Interleave, preload duration : 500 ms


    © Оформление by Vetalpb.wtf



  • Скачать Уличные танцы 3: Все звезды через торрент http://i3.imageban.ru/out/2013/09/11/228b77fe060d3a89be5347342f422cbe.png Скачать фильм Уличные танцы 3: Все звезды через торрент бесплантно в хорошем качестве Описание:Герой фильма, энергичный и бойкий Этан, объединяется со скромным профессиональным стритдансером Джейденом для участия в очередном ... 9.2 10 21
    Info! Золотая раздача, скачанное не засчитывается.
    Торрент: Зарегистрирован [2013-09-10 21:00] · скачан: 842 раз
    Статус: √ проверено
    Размер: 1.46 GB
    Как cкачать? Как скачать Уличные танцы 3: Все звезды через торрент | UTorrent

    % Раздел Тема Автор DL S | L
    Фильмы 2013 [DVDrip, WEB-DLRip, HDrip] [ 1.91 GB ] Уличные танцы 3: Все звезды / All Stars [2013 DVDRip-AVC ()] XLASER Скачать
    1 | 0
    Фильмы [HD 720p, 1080p] (Хороший звук DUB, MVO) [ 4.7 GB ] Уличные танцы 3: Все звезды / All Stars [2013 BDRip 720p ()] XLASER Скачать
    1 | 0
    Фильмы [HD 720p, 1080p] (Хороший звук DUB, MVO) [ 8.07 GB ] Уличные танцы 3: Все звезды / All Stars [2013 BDRip 1080p ()] XLASER Скачать
    1 | 0
    Фильмы (DVD фильмы) [ 3.9 GB ] Уличные танцы 3: Все звезды / All Stars [2013 DVD5] R5 voovaz Скачать
    1 | 0

    28-11-2019 20:33  

    Отключить всю рекламу на сайте

    10-09-2013 21:09 Уличные танцы 3: Все звезды Скачать торрент  

    Спасибо!,щас заценим)))pb.wtf



    11-09-2013 05:29 Уличные танцы 3: Все звезды Скачать торрент  

    Наши прокатчики решили денег подзаработать и прикрепили оригинальное название Все звезды к франшизне Уличные танцы, хотя к этому фильму только два продюсера 2й части относятся. Ну что, заценим.pb.wtf



    11-09-2013 17:22 Уличные танцы 3: Все звезды Скачать торрент  

    стоит качать вообще?pb.wtf



      Дорогой пользователь! Огромная просьба, поблагодарите релизера, оцените раздачу и оставьте свои комментарий, если Вы скачали Уличные танцы 3: Все звезды через торрент бесплатно! Внесите свою лепту в развитие PiratBit!
      Комментировать посты могут только пользователи прошедшие не сложную регистрацию
      Показать сообщения:    

      Уличные танцы 3: Все звезды через торрент
      Скачать бесплатно Уличные танцы 3: Все звезды
      Уличные танцы 3: Все звезды скачать торрент
      Уличные танцы 3: Все звезды смотреть онлайн
      Cкачать фильм Уличные танцы 3: Все звезды бесплатно
      Уличные танцы 3: Все звезды скачать торрент в хорошем качестве
      Уличные танцы 3: Все звезды смотреть онлайн бесплатно в хорошем качестве


      Вы не можете начинать темы
      Вы не можете отвечать на сообщения
      Вы не можете редактировать свои сообщения
      Вы не можете удалять свои сообщения
      Вы не можете голосовать в опросах
      Вы не можете прикреплять файлы к сообщениям
      Вы можете скачивать файлы