новый адрес
Ссылка на приватное зеркало всего за 1$. Внимание количество ограничено!!!

iTunes

1+1

iTunes

мы

WEB-DL

1

iTunes

Чернобыль

iTunes

Ральф против интернета

Лицензия

ПШазам

Лицензия

Оно 2

Лицензия

30
pack

Вам бонус

ВАЖНО

!!Акция!!

Alien_RageХит недели

RePack

Resident Evil 21

ИГРА 18+

pack

RePack

jed

!!Акция!!

Alien_Rage

RePack

fifa19

RePack

Assassins Creed: Odyssey

RePack

NEED FOR SPEED™ PAYBACK

3 сезон

9 сезон

Бесстыжие 9 сезон

Все сериалы

все сериалы на PB.wtf

RePack

FAR CRY 5
Ребята, катастрофически не хватает 1900р. для оплаты серверов за Октябрь (всвязи с блокировками трафик упал в 3 раза), 1-2р., выручайте.
  

Пена дней / L'écume des jours (Мишель Гондри / Michel Gondry) [2013, Франция, Бельгия, фэнтези, мелодрама, драма, HDRip, Дублированный [Лицензия] pb.wtf

Пена дней через торрент pb.wtf

Размер: 1.37 GB | Добавлен: 6 лет 2 мес. назад | Торрент скачан:323 раза
Скачать  

10-09-2013 21:57 Пена дней Скачать торрент  

Пена дней / L'écume des jours


  • Год выпуска:2013
  • Страна:Франция, Бельгия
  • Жанр:фэнтези, мелодрама, драма

  • Продолжительность: 02:10:47
  • Перевод:Дублированный [Лицензия]

  • Субтитры: Нет
    • Режиссер:Мишель Гондри / Michel Gondry
    • Сценарий: Люк Босси / Luc Bossi, Мишель Гондри / Michel Gondry, Борис Виан / Boris Vian
    • Продюсер: Люк Босси / Luc Bossi, Ксавье Кастано / Xavier Castano, Женевьева Лемаль / Genevieve Lemal, Жюльен Соль / Julien Seul, Арлетт Зильберберг / Arlette Zylberberg

  • В ролях:Ромен Дюрис (Colin), Одри Тоту (Chloé), Гад Эльмалех (Chick), Омар Си (Nicolas), Айса Майга (Alise), Шарлотта Лебон (Isis), Саша Бурдо (La souris), Филипп Торретон (Jean-Sol Partre), Венсан Ротье (Le religieux), Лоран Лафитт (Le directeur de société), Наташа Ренье (La marchande de remèdes), Зинедин Суалем (Le directeur de l'usine d'armement)
    • Описание:
      История любви, разворачивающаяся в фантастическом мире, где влюбленные летают на свидания в розовых тучках и танцуют на потолке, где в коридоре обычной квартиры живет солнце, а мыши-домоправители ведут беседы с кошками, где цветы прорастают внутри людей и тепло человеческого сердца способно уничтожить самое опасное оружие.

  • Рейтинг
    kinopoisk.ru: 7.287 (3183)
    imdb.com: 6.30 (1801)
    • Качество:HDRip
    • Формат:AVI
    • Видео кодек: XviD
    • Аудио кодек:AC3
    • Видео: XviD, 720x384 (1.875), 1038 kbps, 24 fps, 0,157 bpp
    • Аудио: AC3 / 5.1 / 48 kHz / 448 kbps / 16 bit


    General
    Complete name : D:ТорентыPena.dnej.2013.D.HDRip.1400Mb.avi
    Format : AVI
    Format/Info : Audio Video Interleave
    File size : 1.37 GiB
    Duration : 2h 10mn
    Overall bit rate : 1 496 Kbps
    Writing application : VirtualDubMod 1.5.10.2 (build 2540/release)
    Writing library : VirtualDubMod build 2540/release

    Video
    ID : 0
    Format : MPEG-4 Visual
    Format profile : Advanced Simple@L5
    Format settings, BVOP : 2
    Format settings, QPel : No
    Format settings, GMC : No warppoints
    Format settings, Matrix : Default (MPEG)
    Codec ID : XVID
    Codec ID/Hint : XviD
    Duration : 2h 10mn
    Bit rate : 1 039 Kbps
    Width : 720 pixels
    Height : 384 pixels
    Display aspect ratio : 1.875
    Frame rate : 24.000 fps
    Color space : YUV
    Chroma subsampling : 4:2:0
    Bit depth : 8 bits
    Scan type : Progressive
    Compression mode : Lossy
    Bits/(Pixel*Frame) : 0.157
    Stream size : 972 MiB (69%)
    Writing library : XviD 1.2.1 (UTC 2008-12-04)

    Audio
    ID : 1
    Format : AC-3
    Format/Info : Audio Coding 3
    Mode extension : CM (complete main)
    Codec ID : 2000
    Duration : 2h 10mn
    Bit rate mode : Constant
    Bit rate : 448 Kbps
    Channel(s) : 6 channels
    Channel positions : Front: L C R, Side: L R, LFE
    Sampling rate : 48.0 KHz
    Bit depth : 16 bits
    Compression mode : Lossy
    Stream size : 419 MiB (30%)
    Alignment : Split accross interleaves
    Interleave, duration : 42 ms (1.00 video frame)
    Interleave, preload duration : 500 ms

    • На английский язык фильм перевели как Mood Indigo ("Настроение цвета индиго»).
    • В фильме, как и в романе, появляется второстепенный сатирический персонаж Жан-Соль Партр, пародирующий философа и писателя Жана-Поля Сартра. Персонаж назван именем, созвучным с именем прототипа. К слову, Сартр высоко отзывался о творчестве Виана, в частности, о его рассказах.
    • Фильм Мишеля Гондри - экранизация одноименного романа французского писателя Бориса Виана.
    • Режиссер Мишель Гондри сыграл в фильме небольшую роль доктора.
    • еще 1 факт

    © Оформление by Vetalpb.wtf



  • Скачать Пена дней через торрент http://i5.imageban.ru/out/2013/09/11/800b8e49f2a26dbaa813b837766978dd.png Скачать фильм Пена дней через торрент бесплантно в хорошем качестве Описание:История любви, разворачивающаяся в фантастическом мире, где влюбленные летают на свидания в розовых тучках и танцуют на потолке, ... 7.9 10 16
    Info! Золотая раздача, скачанное не засчитывается.
    Торрент: Зарегистрирован [2013-09-10 21:57] · скачан: 323 раз
    Статус: √ проверено
    Размер: 1.37 GB
    Как cкачать? Как скачать Пена дней через торрент | qTorrent

    28-11-2019 20:33  

    Отключить всю рекламу на сайте

    10-09-2013 22:17 Пена дней Скачать торрент  

    что курил автор этой повести - вот это меня волновала большую часть фильма особенно первую середину фильма!!! а так интересный фильмpb.wtf



      Дорогой пользователь! Огромная просьба, поблагодарите релизера, оцените раздачу и оставьте свои комментарий, если Вы скачали Пена дней через торрент бесплатно! Внесите свою лепту в развитие PiratBit!
      Комментировать посты могут только пользователи прошедшие не сложную регистрацию
      Показать сообщения:    

      Пена дней через торрент
      Скачать бесплатно Пена дней
      Пена дней скачать торрент
      Пена дней смотреть онлайн
      Cкачать фильм Пена дней бесплатно
      Пена дней скачать торрент в хорошем качестве
      Пена дней смотреть онлайн бесплатно в хорошем качестве


      Вы не можете начинать темы
      Вы не можете отвечать на сообщения
      Вы не можете редактировать свои сообщения
      Вы не можете удалять свои сообщения
      Вы не можете голосовать в опросах
      Вы не можете прикреплять файлы к сообщениям
      Вы можете скачивать файлы