новый адрес
Мега распродажа FORZA HORIZON 4 ULTIMATE+ВСЕ DLC+ОНЛАЙН всего за 499р. 349 руб. (супер цена). Внимание количество ограничено!!!

iTunes

1+1

iTunes

мы

iTunes

1

iTunes

Чернобыль

iTunes

Ральф против интернета

Лицензия

ПШазам

Лицензия

Игра престолов

Лицензия

30
pack

ВАЖНО

!!Акция!!

Alien_RageХит недели

RePack

Resident Evil 21

ИГРА 18+

pack

RePack

Metro:Exodus

!!Акция!!

Alien_Rage

RePack

fifa19

RePack

Assassins Creed: Odyssey

RePack

NEED FOR SPEED™ PAYBACK

3 сезон

9 сезон

Бесстыжие 9 сезон

Все сериалы

все сериалы на PB.wtf

RePack

FAR CRY 5
Ребята, катастрофически не хватает 1900р. для оплаты серверов за Октябрь (всвязи с блокировками трафик упал в 3 раза), 1-2р., выручайте.
  

Тёмный мир: Равновесие (Олег Асадулин) [2013 г.,фентези,HDTVRip 1080p] pb.wtf

Тёмный мир: Равновесие через торрент pb.wtf

Размер: 119 MB | Добавлен: 6 лет 2 мес. назад | Торрент скачан:76 раз
Скачать  

10-09-2013 22:29 Тёмный мир: Равновесие Скачать торрент  

Тёмный мир: Равновесие

«Скоро твой мир изменится»

  • Год выпуска:2013
  • Страна:Россия
  • Жанр:фэнтези, приключения
  • Продолжительность: 00:02:00
  • Перевод:Не требуется

  • Субтитры: Нет
    • Режиссер:Олег Асадулин
    • Сценарий: Марина Дяченко, Сергей Дяченко
    • Продюсер: Наталия Клибанова

  • В ролях:Мария Пирогова, Павел Прилучный, Макар Запорожский, Валерия Ланская, Евгения Брик, Александр Ратников, Владислав Абашин, Петр Семак, Алиса Хазанова, Валерий Опёнкин (сотрудник турфирмы), Тимофей Носков (Иван), Никита Тезин (очкарик)
    • Описание:
      Каждый день они крадут твои силы, твои эмоции, твою любовь. Мы называем их Тени. Работа таких как мы - доставлять их обратно в Темный мир. Надвигается катастрофа и человечество может оказаться во власти тьмы...
      И только мы можем сохранить равновесие.


      Дата российской премьеры: 28 ноября 2013, «Централ Партнершип»
    • Качество:HDTVRip
    • Формат:MPEG-4
    • Видео кодек: AVC
    • Аудио кодек:AAC LC
    • Видео: AVC, 1920x804 (2.40:1), 8179 kbps, 29,970 fps, 0,177 bpp
    • Аудио: AAC LC / 2.0 / 48 kHz / 127 kbps /

    General
    Complete name : D:ТорентыTemnyy-mir_-Ravnovesie-trl.mp4
    Format : MPEG-4
    Format profile : QuickTime
    Codec ID : qt
    File size : 119 MiB
    Duration : 2mn 0s
    Overall bit rate mode : Variable
    Overall bit rate : 8 304 Kbps
    Encoded date : UTC 2013-06-06 20:00:00
    Tagged date : UTC 2013-06-06 20:00:00
    Writing application : Lavf53.10.0

    Video
    ID : 1
    Format : AVC
    Format/Info : Advanced Video Codec
    Format profile : Baseline@L4.0
    Format settings, CABAC : No
    Format settings, ReFrames : 1 frame
    Format settings, GOP : M=1, N=12
    Codec ID : avc1
    Codec ID/Info : Advanced Video Coding
    Duration : 2mn 0s
    Bit rate mode : Variable
    Bit rate : 8 180 Kbps
    Maximum bit rate : 9 750 Kbps
    Width : 1 920 pixels
    Height : 804 pixels
    Display aspect ratio : 2.40:1
    Frame rate mode : Constant
    Frame rate : 29.970 fps
    Original frame rate : 24.000 fps
    Color space : YUV
    Chroma subsampling : 4:2:0
    Bit depth : 8 bits
    Scan type : Progressive
    Bits/(Pixel*Frame) : 0.177
    Stream size : 117 MiB (98%)
    Language : English
    Encoded date : UTC 2013-06-06 20:00:00
    Tagged date : UTC 2013-06-06 20:00:00

    Audio
    ID : 2
    Format : AAC
    Format/Info : Advanced Audio Codec
    Format profile : LC
    Codec ID : 40
    Duration : 2mn 0s
    Bit rate mode : Constant
    Bit rate : 128 Kbps
    Channel(s) : 2 channels
    Channel positions : Front: L R
    Sampling rate : 48.0 KHz
    Compression mode : Lossy
    Stream size : 1.83 MiB (2%)
    Language : English
    Encoded date : UTC 2013-06-06 20:00:00
    Tagged date : UTC 2013-06-06 20:00:00


    © Оформление by Vetalpb.wtf



  • Скачать Тёмный мир: Равновесие через торрент http://i6.imageban.ru/out/2013/09/11/2e5556c29b8a23929afa60065fab376f.png Скачать фильм Тёмный мир: Равновесие через торрент бесплантно в хорошем качестве Описание:Каждый день они крадут твои силы, твои эмоции, твою любовь. Мы называем их Тени. Работа таких как мы - доставлять их обратно в ... 9.3 10 8
    Info! Золотая раздача, скачанное не засчитывается.
    Торрент: Зарегистрирован [2013-09-10 22:29] · скачан: 76 раз
    Статус: √ проверено
    Размер: 119 MB
    Как cкачать? Как скачать Тёмный мир: Равновесие через торрент | qTorrent

    % Раздел Тема Автор DL S | L
    Наши новые фильмы 2013 [ 1.46 GB ] Тёмный мир: Равновесие [2013 WEB-DLRip] MihailHD Скачать
    1 | 0
    Наши сериалы [ 13.21 GB ] Тёмный мир: Равновесие [01-12 из 12] [2014 WEB-DLRip 720p] Assasinca Скачать
    1 | 0
    Наши фильмы (Blu-ray, BD-Remux, HDDVD) [ 17.5 GB ] Тёмный мир: Равновесие [2013 фентези Blu-Ray Remux [GER Transfer] () Ворон Скачать
    1 | 0
    Наши сериалы [ 7.73 GB ] Тёмный мир: Равновесие / Сезон: 1 / Серия 12-12) [2013 Россия SATRip] Ворон Скачать
    1 | 0
    Наши фильмы (DVD фильмы) [ 4.28 GB ] Тёмный мир: Равновесие [2013 DVD5] R5 voovaz Скачать
    1 | 0
    Наши фильмы (HD, WEB-DL 720p, 1080p) [ 3.02 GB ] Тёмный мир: Равновесие [2013 Россия WEB-DL 720p] Messa-fan Скачать
    1 | 0
    Наши фильмы (HD, WEB-DL 720p, 1080p) [ 3.08 GB ] Тёмный мир: Равновесие [2013 WEB-DL 1080p] Drakosha Скачать
    1 | 0


    >> Регистрируемся здесь <<






    Отзывы и комментарии о схеме читаем и пишем здесь: ---> Отзывы и комментарии о схеме

    Новые благодарочки в телеграм довольных пользователей:
    скриншот   скриншот   скриншот   скриншот   скриншот

    05-10-2013 16:09 Тёмный мир: Равновесие Скачать торрент  

    кто смотрел???pb.wtf



    05-01-2014 18:11 Тёмный мир: Равновесие Скачать торрент  

    Смотрел в кино. Фильм хорош, для просмотра на один раз, но графика впечатлила.pb.wtf



      Дорогой пользователь! Огромная просьба, поблагодарите релизера, оцените раздачу и оставьте свои комментарий, если Вы скачали Тёмный мир: Равновесие через торрент бесплатно! Внесите свою лепту в развитие PiratBit!
      Комментировать посты могут только пользователи прошедшие не сложную регистрацию
      Показать сообщения:    

      Тёмный мир: Равновесие через торрент
      Скачать бесплатно Тёмный мир: Равновесие
      Тёмный мир: Равновесие скачать торрент
      Тёмный мир: Равновесие смотреть онлайн
      Cкачать фильм Тёмный мир: Равновесие бесплатно
      Тёмный мир: Равновесие скачать торрент в хорошем качестве
      Тёмный мир: Равновесие смотреть онлайн бесплатно в хорошем качестве


      Вы не можете начинать темы
      Вы не можете отвечать на сообщения
      Вы не можете редактировать свои сообщения
      Вы не можете удалять свои сообщения
      Вы не можете голосовать в опросах
      Вы не можете прикреплять файлы к сообщениям
      Вы можете скачивать файлы