Ссылка на приватное зеркало всего за 1$. Внимание количество ограничено!!!

iTunes

iTunes

iTunes

1

iTunes

iTunes

iTunes

WEBRip

iTunes

30
pack

$ от Little Big

ВАЖНО

!!Акция!!

Alien_RageХит недели

RePack

Resident Evil 21

ИГРА 18+

pack

RePack

jed

!!Акция!!

Alien_Rage

RePack

fifa19

RePack

Assassins Creed: Odyssey

RePack

NEED FOR SPEED™ PAYBACK

4 сезон

9 сезон

Бесстыжие 9 сезон

Все сериалы

все сериалы на PB.wtf

RePack

FAR CRY 5
  

Под куполом / Under the Dome / Сезон: 1 / Серии: 1-13 из 13 (Джек Бендер) [2013, Ужасы, Фантастика, WEB-DLRip] MVO (BaibaKo)+Original pb.wtf

Под куполом через торрент pb.wtf

Качают: 2 [ 0 KB/s ]
Размер: 7.1 GB | Добавлен: 6 лет 10 мес. назад | Торрент скачан:101 раз
Скачать  

11-09-2013 05:48 Под куполом Скачать торрент  

Под куполом / Under the Dome

Год выпуска: 2013
Страна: США
Жанр: ужасы, фантастика, ,
Продолжительность: ~00:42:47 серия
Перевод:Профессиональный (многоголосый закадровый)(BaibaKo)

Режиссер: Джек Бендер



В ролях: Майк Фогель, Колин Форд, Аиша Хиндс, Александр Кох, Рашель Лефевр, Натали Мартинез, Дин Норрис, Джолин Парди, Бриттани Робертсон, Николас Стронг и др.,

Описание: Обычным, пригожим осенним днем, город Честерс Миллз, штат Мэн, был внезапно отрезан от остального мира невидимым силовым барьером. Самолеты врезаются в купол и падают, пылая, с небес; садовнику отрезает силовым полем руку; люди, выехавшие в соседний город по делам, не могут вернуться к своим близким; автомобили взрываются от столкновения с куполом. Никто не понимает, что это за барьер, откуда он взялся и исчезнет ли он.

Дейл Барбара, ветеран конфликта в Ираке, а ныне повар, обнаруживает себя в команде с несколькими отважными жителями — Джулией Шамвей, владелицей городской газеты, помощником врача, женщиной и тремя храбрыми детьми. Против них выступает Большой Джим Ренни — местный политический деятель, который для удержания власти не остановится ни перед чем, даже перед убийством, а также его сын со своим личным «скелетом в шкафу». Но главный их противник — сам Купол…

Релиз от:
Автор перевода: Янина Галицкая
Озвучка: Юлия Котурбаш, Светлана Доманова, Артемий Мирон и Алексей Кузнецов
Качество: WEB-DLRip
Формат: AVI
Видео кодек: XviD
Аудио кодек: MP3
Видео: 720x400 (16:9), 23.976 fps, 1 529 Kbps
Аудио#1: Rus, 128 Kbps, 48.0 KHz, 2 ch
Аудио#2: Eng, 128 Kbps, 48.0 KHz, 2 ch
Исправлена 13 серия, заменена на оригинальную, добавлена английская дорожка, видео соответствует основному ряду.Просьба перекачать торрент
Раздача ведётся путём добавления новых серий; при каждом добавлении создаётся новый торрент. Чтобы начать докачку новой серии, пользователям необходимо сделать следующее:
(1) остановить скачивание,
(2) удалить старый торрент у себя из клиента (старые серии удалять не надо),
(3) скачать новый торрент и запустить его у себя в клиенте вместо старого, при этом указать клиенту путь в старую папку куда и должно происходить скачивание новых серий.

Ваш клиент при этом должен произвести хеширование (проверку) старой папки (если не производит сам - помогите ему сделать это), и будет докачивать только те серии которых у вас ещё нет. Старые серии при этом не удаляются, а продолжают раздаваться!

Eсли вы уже удалили старые серии, то предотвратить повторную закачку старых серий можно, отжав галочку в соответствующих местах при запуске нового торрента. По возможности, желательно не удалять старые серии как можно дольше чтобы релизёр не столько продолжал раздавать старые серии, а смог сконцентрироваться на новых.
16 сентября 2013 13- я заключительная «Занавес» «Curtains»
09.09.2013 12 Exigent Circumstances «Неотложные обстоятельства»
02.09.2013 11 Speak of the Devil «Помяни чёрта...»
26.08.2013 10 Let the Games Begin «Да начнутся игры!»
19.08.2013 09 The Fourth Hand «Четвёртая рука»
12.08.2013 08 Thicker Than Water «Гуще, чем вода»
05.08.2013 07 Imperfect Circles «Несовершенные круги»
29.07.2013 06 The Endless Thirst «Бесконечная жажда»
22.07.2013 05 Blue on Blue «Огонь по своим»
15.07.2013 04 Outbreak «Эпидемия»
08.07.2013 03 Manhunt «Преследование»
01.07.2013 02 The Fire «Пожар»
24.06.2013 01 Pilot

General
Complete name : Under.the.Dome.s01e01.BaibaKo.avi
Format : AVI
Format/Info : Audio Video Interleave
File size : 551 MiB
Duration : 42mn 47s
Overall bit rate : 1 799 Kbps
Writing application : VirtualDubMod 1.5.10.2 (build 2540/release)
Writing library : VirtualDubMod build 2540/release

Video
ID : 0
Format : MPEG-4 Visual
Format profile : Advanced Simple@L5
Format settings, BVOP : Yes
Format settings, QPel : No
Format settings, GMC : No warppoints
Format settings, Matrix : Custom
Codec ID : XVID
Codec ID/Hint : XviD
Duration : 42mn 47s
Bit rate : 1 529 Kbps
Width : 720 pixels
Height : 400 pixels
Display aspect ratio : 16:9
Frame rate : 23.976 fps
Color space : YUV
Chroma subsampling : 4:2:0
Bit depth : 8 bits
Scan type : Progressive
Bits/(Pixel*Frame) : 0.221
Stream size : 468 MiB (85%)
Writing library : XviD 73

Audio #1
ID : 1
Format : MPEG Audio
Format version : Version 1
Format profile : Layer 3
Mode : Joint stereo
Mode extension : MS Stereo
Codec ID : 55
Codec ID/Hint : MP3
Duration : 42mn 47s
Bit rate mode : Constant
Bit rate : 128 Kbps
Channel(s) : 2 channels
Sampling rate : 48.0 KHz
Stream size : 39.2 MiB (7%)
Alignment : Aligned on interleaves
Interleave, duration : 42 ms (1.00 video frame)
Interleave, preload duration : 504 ms
Writing library : LAME3.99r
Encoding settings : -m j -V 4 -q 2 -lowpass 17 -b 128

Audio #2
ID : 2
Format : MPEG Audio
Format version : Version 1
Format profile : Layer 3
Mode : Joint stereo
Mode extension : MS Stereo
Codec ID : 55
Codec ID/Hint : MP3
Duration : 42mn 47s
Bit rate mode : Constant
Bit rate : 128 Kbps
Channel(s) : 2 channels
Sampling rate : 48.0 KHz
Stream size : 39.2 MiB (7%)
Alignment : Aligned on interleaves
Interleave, duration : 42 ms (1.00 video frame)
Interleave, preload duration : 504 ms
Writing library : LAME3.99r
Encoding settings : -m j -V 4 -q 2 -lowpass 17 -b 128


Под куполом скачать торрент


Добавлена 13 серия Финал сезонаpb.wtf



Скачать Под куполом через торрент http://pic.kartinco.top/images/3/jzlcng9m15.jpg Скачать фильм Под куполом через торрент бесплантно в хорошем качестве Описание: Обычным, пригожим осенним днем, город Честерс Миллз, штат Мэн, был внезапно отрезан от остального мира невидимым силовым ... 10 10 21
Info! Золотая раздача, скачанное не засчитывается.
Торрент: Зарегистрирован [2013-09-18 06:27] · скачан: 101 раз
Статус: √ проверено
Размер: 7.1 GB
Как cкачать? Как скачать Под куполом через торрент | qTorrent

% Раздел Тема Автор DL S | L
Под куполом [ 18.36 GB ] Под куполом / Under the Dome / Сезон: 1 / Серии: 1-13 из 13 [2013 WEB-DL 720p] MVO +Original Assasinca Скачать
1 | 0


Последний раз редактировалось: Assasinca (2013-09-18 06:27), всего редактировалось 4 раз(а)

28-11-2019 20:33  

Отключить всю рекламу на сайте

18-09-2013 04:34 Под куполом Скачать торрент  

Assasinca писал(а):

1 Under.the.Dome.s01e12.WEB-DLRip.XviD.Rus.Eng.BaibaKo.tv.avi
2 Under.the.Dome.s01e13.WEB-DLRip.x264.Rus.Eng.BaibaKo.tv.mp4

Раздавать материал в разных контейнерах строго запрещено, перезаливайте.

Об исправлении сообщите в лс.pb.wtf



13-08-2015 16:43 Под куполом Скачать торрент  

2 недели не могу докачать 1%pb.wtf



27-08-2015 23:29 Под куполом Скачать торрент  

Доброго времени суток, прошу встать на раздачу сериала
Под куполом / Under the Dome / Сезон: 1 / Серии: 1-13 из 13 (Джек Бендер) [2013, Ужасы, Фантастика, WEB-DLRip] MVO (BaibaKo)+Original, докачал до 98.9% и больше не идет...pb.wtf



30-08-2015 03:29 Под куполом Скачать торрент  

Встаньте на раздачу плз, не могу докачать 1%pb.wtf



13-09-2016 15:35 Под куполом Скачать торрент  

Ребята станьте на раздачу пожалуйста, осталось 80 метров((((pb.wtf



    Дорогой пользователь! Огромная просьба, поблагодарите релизера, оцените раздачу и оставьте свои комментарий, если Вы скачали Под куполом через торрент бесплатно! Внесите свою лепту в развитие PiratBit!
    Комментировать посты могут только пользователи прошедшие не сложную регистрацию
    Показать сообщения:    

    Под куполом через торрент
    Скачать бесплатно Под куполом
    Под куполом скачать торрент
    Под куполом смотреть онлайн
    Cкачать фильм Под куполом бесплатно
    Под куполом скачать торрент в хорошем качестве
    Под куполом смотреть онлайн бесплатно в хорошем качестве


    Вы не можете начинать темы
    Вы не можете отвечать на сообщения
    Вы не можете редактировать свои сообщения
    Вы не можете удалять свои сообщения
    Вы не можете голосовать в опросах
    Вы не можете прикреплять файлы к сообщениям
    Вы можете скачивать файлы