Доктор Стрэндж

Лицензия

Добыча

MVO

Дом дракона

1 сезон

Тор

Лицензия

Мэверик

Лицензия

Там, где раки поют

MVO

Властелин колец

1 сезон

Ultimate

pack

Рекомендуем

30

Repack

ВАЖНО

ВАЖНО

Ghostwire

RePack

jed

RePack

nioh2

RePack

RDR2

RePack

NEED FOR SPEED™ PAYBACK

RePack

скачать торрент

Кинопоиск HD

Острые козырьки 6 сезон

6 сезон

FAR CRY 6

RePack

скачать торрент

Лицензия

скачать торрент

MVO

1

1 сезон

скачать торрент

1 сезон

скачать торрент

Лицензия

  

Дом восковых фигур / House of Wax (Жауме Серра / Jaume Collet-Serra) [2005 , Австралия, США , ужасы, триллер , BDRip 1080р , DUB , MVO , Original]

Дом восковых фигур через торрент pb.wtf

Размер: 7.94 GB | Добавлен: 9 лет назад | Торрент скачан:39 раз
Смотреть онлайн Дом восковых фигур | Скачать   

11-09-2013 06:56 Дом восковых фигур Скачать торрент  

Дом восковых фигур / House of Wax

Слоган: «Завладей. Убей. И в музей.»
Год выпуска: 2005
Страна: Австралия, США
Жанр: ужасы, триллер
Продолжительность: 01:52:44
Перевод: Профессиональный (многоголосый закадровый) (Tycoon) + Профессиональный (полное дублирование) + Оригинальный

Режиссер: Жауме Серра / Jaume Collet-Serra
В ролях: Элиша Катберт (Carly Jones), Чад Майкл Мюррэй (Nick Jones), Брайан Ван Холт (Bo / Vincent), Пэрис Хилтон (Paige Edwards), Джаред Падалеки (Wade), Джон Абрахамс (Dalton Chapman), Роберт Ричард (Blake), Драгици Деберт (Trudy Sinclair), Томас Адамсон (Young Bo), Мюррэй Смит (Dr. Victor Sinclair), Сэм Харкесс (Young Vincent), Дэймон Херриман (Roadkill Driver)
Описание: Автомобиль ломается, и компании молодых людей приходится обратиться за помощью к обитателям маленького заброшенного городка. Главной достопримечательностью этой местности, безусловно, является дом с большим количеством очень уж реалистичных восковых фигур.
Страх неминуемо настигает незваных гостей, когда они узнают, что кое-кто хочет расширить свою коллекцию, заполнив весь город трупами убитых ими случайных приезжих, и покрыв их тела воском. Друзьям придется найти выход из положения, если они не хотят оказаться постоянными экспонатами Дома восковых фигур...
Рейтинг
kinopoisk.ru: 6.605 (29 615)
imdb.com: 5.20 (67 419)
MPAA: R - Лицам до 17 лет обязательно присутствие взрослого
Бюджет: $40 000 000
Сборы в США: $32 064 800
Сборы в России: $1 700 000
Сборы в мире: $68 766 121
Мировая премьера: 26 апреля 2005
Релиз на DVD: 13 октября 2011,«CP-Digital»

  • Качество: BDRip 1080р
  • Формат: MKV
  • Видео кодек: AVC
  • Аудио кодек: AC3
  • Видео: AVC, 1920x1080 (16:9), 8560 kbps, 23,976 fps, 0,172 bpp
  • Аудио №1: русский / AC3 / 5.1 / 48 kHz / 448 kbps / 16 bit |Дубляж|
  • Аудио №2: русский / AC3 / 5.1 / 48 kHz / 448 kbps / 16 bit (многоголосый закадровый) (Tycoon)
  • Аудио №3: английский / AC3 / 5.1 / 48 kHz / 640 kbps / 16 bit
    • Элиша Катберт, чтобы казаться немного выше в сценах, где она снималась вместе с Джаредом Падалеки, привязывала деревянные подставки к подошвам своей обуви. Эта хитрость применялась лишь в сценах, где актёров снимали выше колен.
    • Несмотря на то, что в титрах у персонажа Чада Майкла Мюррэя и его сестры указана фамилия «Джоунс», фактически фамилия им не была дана.
    • Продюсер Джоэл Силвер рассматривал идею снять ленту в 3D-формате, но посчитал, что во время премьеры подобный вариант не будет пользоваться спросом.
    • Главного злодея картины по сюжету зовут Винсент - в честь актёра Винсента Прайса, исполнявшего главную роль в оригинальном фильме «Музей восковых фигур» (1953).
    • Пэрис Хилтон не проходила прослушивание, она была единственным выбором режиссёра на роль Пэйдж.
    • еще 2 факта
    Трейлер
    Format : Matroska
    Format version : Version 4 / Version 2
    File size : 7.94 GiB
    Duration : 1h 52mn
    Overall bit rate : 10.1 Mbps
    Movie name : Дом восковых фигур.(2005).BDRip.1080p.(DVD9).[NoLimits-Team]
    Encoded date : UTC 2013-09-10 13:21:51
    Writing application : mkvmerge v6.3.0 ('You can't stop me!') built on Jun 28 2013 20:09:41
    Writing library : libebml v1.3.0 + libmatroska v1.4.0

    Video
    ID : 1
    Format : AVC
    Format/Info : Advanced Video Codec
    Format profile : [email protected]
    Format settings, CABAC : Yes
    Format settings, ReFrames : 4 frames
    Codec ID : V_MPEG4/ISO/AVC
    Duration : 1h 52mn
    Bit rate : 8 560 Kbps
    Width : 1 920 pixels
    Height : 1 080 pixels
    Display aspect ratio : 16:9
    Frame rate : 23.976 fps
    Color space : YUV
    Chroma subsampling : 4:2:0
    Bit depth : 8 bits
    Scan type : Progressive
    Bits/(Pixel*Frame) : 0.172
    Stream size : 6.58 GiB (83%)
    Title : Дом восковых фигур.(2005).BDRip.1080p.(DVD9).[NoLimits-Team]
    Writing library : x264 core 138 r2358 9e941d1
    Encoding settings : cabac=1 / ref=4 / deblock=1:-3:-3 / analyse=0x3:0x133 / me=umh / subme=11 / psy=1 / psy_rd=1.00:0.00 / mixed_ref=1 / me_range=32 / chroma_me=1 / trellis=2 / 8x8dct=1 / cqm=0 / deadzone=21,11 / fast_pskip=0 / chroma_qp_offset=-2 / threads=12 / lookahead_threads=1 / sliced_threads=0 / nr=0 / decimate=1 / interlaced=0 / bluray_compat=0 / constrained_intra=0 / bframes=6 / b_pyramid=2 / b_adapt=2 / b_bias=0 / direct=3 / weightb=1 / open_gop=0 / weightp=2 / keyint=240 / keyint_min=23 / scenecut=40 / intra_refresh=0 / rc=2pass / mbtree=0 / bitrate=8560 / ratetol=2.0 / qcomp=0.60 / qpmin=0 / qpmax=69 / qpstep=4 / cplxblur=20.0 / qblur=0.5 / ip_ratio=1.40 / pb_ratio=1.30 / aq=1:0.90
    Language : English
    Default : Yes
    Forced : No

    Audio #1
    ID : 2
    Format : AC-3
    Format/Info : Audio Coding 3
    Mode extension : CM (complete main)
    Codec ID : A_AC3
    Duration : 1h 52mn
    Bit rate mode : Constant
    Bit rate : 448 Kbps
    Channel(s) : 6 channels
    Channel positions : Front: L C R, Side: L R, LFE
    Sampling rate : 48.0 KHz
    Bit depth : 16 bits
    Compression mode : Lossy
    Stream size : 361 MiB (4%)
    Title : Дублированный
    Language : Russian
    Default : Yes
    Forced : No

    Audio #2
    ID : 3
    Format : AC-3
    Format/Info : Audio Coding 3
    Mode extension : VO (voice over)
    Codec ID : A_AC3
    Duration : 1h 52mn
    Bit rate mode : Constant
    Bit rate : 448 Kbps
    Channel(s) : 6 channels
    Channel positions : Front: L C R, Side: L R, LFE
    Sampling rate : 48.0 KHz
    Bit depth : 16 bits
    Compression mode : Lossy
    Stream size : 361 MiB (4%)
    Title : Tycoon
    Language : Russian
    Default : No
    Forced : No

    Audio #3
    ID : 4
    Format : AC-3
    Format/Info : Audio Coding 3
    Mode extension : CM (complete main)
    Codec ID : A_AC3
    Duration : 1h 52mn
    Bit rate mode : Constant
    Bit rate : 640 Kbps
    Channel(s) : 6 channels
    Channel positions : Front: L C R, Side: L R, LFE
    Sampling rate : 48.0 KHz
    Bit depth : 16 bits
    Compression mode : Lossy
    Stream size : 516 MiB (6%)
    Title : Оригинал
    Language : English
    Default : No
    Forced : No

    Text #1
    ID : 5
    Format : UTF-8
    Codec ID : S_TEXT/UTF8
    Codec ID/Info : UTF-8 Plain Text
    Title : Полные
    Language : Russian
    Default : No
    Forced : No

    Text #2
    ID : 6
    Format : UTF-8
    Codec ID : S_TEXT/UTF8
    Codec ID/Info : UTF-8 Plain Text
    Title : Full
    Language : English
    Default : No
    Forced : No

    Menu
    00:00:00.000 : :Chapter 01
    00:03:05.852 : :Chapter 02
    00:06:24.217 : :Chapter 03
    00:09:53.259 : :Chapter 04
    00:12:58.611 : :Chapter 05
    00:16:42.001 : :Chapter 06
    00:19:26.165 : :Chapter 07
    00:21:58.650 : :Chapter 08
    00:25:35.367 : :Chapter 09
    00:29:43.782 : :Chapter 10
    00:33:48.192 : :Chapter 11
    00:40:11.742 : :Chapter 12
    00:44:34.004 : :Chapter 13
    00:48:19.062 : :Chapter 14
    00:52:17.801 : :Chapter 15
    00:55:46.843 : :Chapter 16
    00:59:14.884 : :Chapter 17
    01:03:13.289 : :Chapter 18
    01:06:43.666 : :Chapter 19
    01:09:02.304 : :Chapter 20
    01:11:04.260 : :Chapter 21
    01:13:58.267 : :Chapter 22
    01:17:40.489 : :Chapter 23
    01:22:45.627 : :Chapter 24
    01:27:10.391 : :Chapter 25
    01:31:49.337 : :Chapter 26
    01:34:46.347 : :Chapter 27
    01:38:08.883 : :Chapter 28
    01:41:15.903 : :Chapter 29
    01:44:26.260 : :Chapter 30
    01:47:01.248 : :Chapter 31
    скриншот   скриншот   скриншот  



  • Скачать Дом восковых фигур через торрент http://i3-imageban-ru.translate.goog/out/2013/09/11/bfb2bd7c40a00faa53b7f626fc07e6b2.png Скачать, смотреть онлайн Дом восковых фигур бесплантно в хорошем качестве Описание: Автомобиль ломается, и компании молодых людей приходится обратиться за помощью к обитателям маленького заброшенного городка. ... 9.7 10 15
    Info! Золотая раздача, скачанное не засчитывается.
    Торрент: Зарегистрирован [2013-09-11 06:56] · скачан: 39 раз
    Статус: √ проверено
    Размер: 7.94 GB
    Как cкачать? Как скачать Дом восковых фигур через торрент | UTorrent

    28-11-2019 20:33  

    Отключить вcю реклaмy на сайте

    11-09-2013 07:19 Дом восковых фигур Скачать торрент  

    Класс, спасибо, давно искал в хорошем FullHD сеё кино )



      Дорогой пользователь! Огромная просьба, поблагодарите релизера, оцените раздачу и оставьте свои комментарий, если Вы скачали Дом восковых фигур через торрент бесплатно!!
      Комментировать посты могут только пользователи прошедшие не сложную регистрацию
      Показать сообщения:    


      Дом восковых фигур через торрент
      Скачать бесплатно Дом восковых фигур
      Дом восковых фигур скачать торрент
      Дом восковых фигур смотреть онлайн
      Cкачать фильм Дом восковых фигур бесплатно
      Дом восковых фигур скачать торрент в хорошем качестве
      Дом восковых фигур смотреть онлайн бесплатно в хорошем качестве
      Вы не можете начинать темы
      Вы не можете отвечать на сообщения
      Вы не можете редактировать свои сообщения
      Вы не можете удалять свои сообщения
      Вы не можете голосовать в опросах
      Вы не можете прикреплять файлы к сообщениям
      Вы можете скачивать файлы