Ссылка на приватное зеркало нашего сайта всего за 1$. Внимание количество ограничено!!!

2 сезон

iTunes

1 сезон

1

2 сезон

2 сезон

iTunes

1 сезон

RePack

30

Ultimate

ВАЖНО

ИГРА 18+

pack

RePack

MK11
pack

Забери бонус

RePack

jed

!!Акция!!

Alien_Rage

RePack

fifa19

RePack

Assassins Creed: Odyssey

RePack

NEED FOR SPEED™ PAYBACK

4 сезон

9 сезон

Бесстыжие 9 сезон

Все сериалы

все сериалы на PB.wtf

RePack

FAR CRY 5
  

Ответный удар / Strike back / Сезон: 1 / Серии: 1-6 из 6 (Дэниэл Персивал, Пол Вильшурст, Билл Иглз) [2010 г., боевик, триллер, драма, BDRip 720p]MVO(Русский Репортаж) +Original, Sub pb.wtf

Ответный удар через торрент pb.wtf

Размер: 11.03 GB | Добавлен: 7 лет 2 мес. назад | Торрент скачан:140 раз
Скачать  

11-09-2013 14:17 Ответный удар Скачать торрент  


Ответный удар / Strike back
Год выпуска: 2010
Страна: Великобритания
Жанр: боевик, триллер, драма,
Продолжительность: ~00:44:29 серия
Перевод: Профессиональный (многоголосый, закадровый) (Русский Репортаж)
Субтитры: английские

Режиссер: Дэниэл Персивал Пол Вильшурст Билл Иглз



В ролях: Рашан Стоун, Филип Уинчестер, Салливан Степлтон, Аманда Милинг, Мишель Лукес, Джими Мистри, Шэйн Тейлор, Эндрю Линкольн, Джоди Мей, Рона Митра и др.,

Описание: Джон Портер накануне вторжения в Ирак в 2003 году руководит специальным подразделением в операции по спасению заложника в центре Басры. Однако, результатом операции становится катастрофический поворот событий для него и Коллинсона. У Портера, страдающего чувством вины, спустя 7 лет появляется возможность вернуться в Ирак и попытаться все исправить. Спустя годы, Портер и Коллинсон столкнутся снова

Качество: BDRip 720p
Формат: MKV
Видео кодек: AVC
Аудио кодек: AC3
Видео: 1280x720 (16:9), 25.000 fps, 5 537 Kbps
Аудио#1: Русский: 192 Kbps, 48.0 KHz, 2 ch
Аудио#2: Английский: 192 Kbps, 48.0 KHz, 2 ch




General
Complete name : Strike.Back.S01E01&E02.BDRip.720p.PP.mkv
Format : Matroska
File size : 3.67 GiB
Duration : 1h 28mn
Overall bit rate : 5 922 Kbps
Movie name : Strike Back (BDRip) S02E01&E02 'Iraq' by SPS
Encoded date : UTC 2012-06-27 20:03:44
Writing application : mkvmerge v5.6.0 ('Kenya Kane') built on May 27 2012 16:44:04
Writing library : libebml v1.2.3 + libmatroska v1.3.0

Video
ID : 1
Format : AVC
Format/Info : Advanced Video Codec
Format profile : High@L4.1
Format settings, CABAC : Yes
Format settings, ReFrames : 5 frames
Muxing mode : Container profile=Unknown@4.1
Codec ID : V_MPEG4/ISO/AVC
Duration : 1h 28mn
Bit rate : 5 537 Kbps
Width : 1 280 pixels
Height : 720 pixels
Display aspect ratio : 16:9
Frame rate : 25.000 fps
Color space : YUV
Chroma subsampling : 4:2:0
Bit depth : 8 bits
Scan type : Progressive
Bits/(Pixel*Frame) : 0.240
Stream size : 3.36 GiB (92%)
Writing library : x264 core 98 r1629 2e81ce1
Encoding settings : cabac=1 / ref=5 / deblock=1:0:0 / analyse=0x3:0x133 / me=umh / subme=7 / psy=1 / psy_rd=1.00:0.00 / mixed_ref=1 / me_range=16 / chroma_me=1 / trellis=1 / 8x8dct=1 / cqm=0 / deadzone=21,11 / fast_pskip=0 / chroma_qp_offset=-2 / threads=12 / sliced_threads=0 / nr=0 / decimate=1 / interlaced=0 / constrained_intra=0 / bframes=3 / b_pyramid=2 / b_adapt=1 / b_bias=0 / direct=1 / weightb=1 / weightp=2 / keyint=250 / keyint_min=25 / scenecut=40 / intra_refresh=0 / rc_lookahead=40 / rc=2pass / mbtree=1 / bitrate=5537 / ratetol=1.0 / qcomp=0.60 / qpmin=10 / qpmax=51 / qpstep=4 / cplxblur=20.0 / qblur=0.5 / ip_ratio=1.40 / aq=1:1.00

Audio #1
ID : 2
Format : AC-3
Format/Info : Audio Coding 3
Mode extension : CM (complete main)
Codec ID : A_AC3
Duration : 1h 28mn
Bit rate mode : Constant
Bit rate : 192 Kbps
Channel(s) : 2 channels
Channel positions : Front: L R
Sampling rate : 48.0 KHz
Bit depth : 16 bits
Stream size : 122 MiB (3%)
Title : Русский Репортаж
Language : Russian

Audio #2
ID : 3
Format : AC-3
Format/Info : Audio Coding 3
Mode extension : CM (complete main)
Codec ID : A_AC3
Duration : 1h 28mn
Bit rate mode : Constant
Bit rate : 192 Kbps
Channel(s) : 2 channels
Channel positions : Front: L R
Sampling rate : 48.0 KHz
Bit depth : 16 bits
Stream size : 122 MiB (3%)

Text
ID : 4
Format : UTF-8
Codec ID : S_TEXT/UTF8
Codec ID/Info : UTF-8 Plain Text


Ответный удар скачать торрент


pb.wtf



Скачать Ответный удар через торрент http://pic.kartinco.top/images/3/ztkkel1ta3.jpg Скачать фильм Ответный удар через торрент бесплантно в хорошем качестве Описание: Джон Портер накануне вторжения в Ирак в 2003 году руководит специальным подразделением в операции по спасению заложника в центре ... 9.1 10 13
Info! Золотая раздача, скачанное не засчитывается.
Торрент: Зарегистрирован [2013-09-11 14:17] · скачан: 140 раз
Статус: √ проверено
Размер: 11.03 GB
Как cкачать? Как скачать Ответный удар через торрент | qTorrent

28-11-2019 20:33  

Отключить всю рекламу на сайте

01-11-2013 20:39 Ответный удар Скачать торрент  

спасибо, классный сериал!pb.wtf



03-05-2014 15:44 Ответный удар Скачать торрент  

Всё бы ничего, только судя по трейлеру это второй сезонpb.wtf



31-10-2014 16:43 Ответный удар Скачать торрент  

встаньте на раздачу плиз pb.wtf



12-07-2015 13:29 Ответный удар Скачать торрент  

Встаньте пожалуйста на раздачуpb.wtf



    Дорогой пользователь! Огромная просьба, поблагодарите релизера, оцените раздачу и оставьте свои комментарий, если Вы скачали Ответный удар через торрент бесплатно! Внесите свою лепту в развитие PiratBit!
    Комментировать посты могут только пользователи прошедшие не сложную регистрацию
    Показать сообщения:    

    Ответный удар через торрент
    Скачать бесплатно Ответный удар
    Ответный удар скачать торрент
    Ответный удар смотреть онлайн
    Cкачать фильм Ответный удар бесплатно
    Ответный удар скачать торрент в хорошем качестве
    Ответный удар смотреть онлайн бесплатно в хорошем качестве


    Вы не можете начинать темы
    Вы не можете отвечать на сообщения
    Вы не можете редактировать свои сообщения
    Вы не можете удалять свои сообщения
    Вы не можете голосовать в опросах
    Вы не можете прикреплять файлы к сообщениям
    Вы можете скачивать файлы