Ссылка на приватное зеркало нашего сайта всего за 1$. Внимание количество ограничено!!!

2 сезон

iTunes

1 сезон

1

2 сезон

2 сезон

iTunes

1 сезон

RePack

30

Ultimate

ВАЖНО

ИГРА 18+

pack

RePack

MK11
pack

Забери бонус

RePack

jed

!!Акция!!

Alien_Rage

RePack

fifa19

RePack

Assassins Creed: Odyssey

RePack

NEED FOR SPEED™ PAYBACK

4 сезон

9 сезон

Бесстыжие 9 сезон

Все сериалы

все сериалы на PB.wtf

RePack

FAR CRY 5
  

Ответный удар / Strike back / Сезон: 2 / Серии: 1-10 из 10 (Дэниэл Персивал, Пол Вильшурст, Билл Иглз) [2011 г., боевик, триллер, драма, BDRip] MVO (СТС) +Original pb.wtf

Ответный удар через торрент pb.wtf

Размер: 7.34 GB | Добавлен: 7 лет 2 мес. назад | Торрент скачан:138 раз
Скачать  

11-09-2013 14:46 Ответный удар Скачать торрент  


Ответный удар / Strike back
Год выпуска: 2011
Страна: Великобритания
Жанр: боевик, триллер, драма,
Продолжительность: ~00:45:39 серия
Перевод: Профессиональный многоголосый закадровый (СТС)

Режиссер: Дэниэл Персивал Пол Вильшурст Билл Иглз



В ролях: Рашан Стоун, Филип Уинчестер, Салливан Степлтон, Аманда Милинг, Мишель Лукес, Джими Мистри, Шэйн Тейлор, Эндрю Линкольн, Джоди Мей, Рона Митра и др.,

Описание: Джон Портер накануне вторжения в Ирак в 2003 году руководит специальным подразделением в операции по спасению заложника в центре Басры. Однако, результатом операции становится катастрофический поворот событий для него и Коллинсона. У Портера, страдающего чувством вины, спустя 7 лет появляется возможность вернуться в Ирак и попытаться все исправить. Спустя годы, Портер и Коллинсон столкнутся снова

Качество: BDRip
Формат: AVI
Видео кодек: XviD
Аудио кодек: AC3
Видео:720x400 (16:9), 25.000 fps, 1 747 Kbps
Аудио#1: Русский: 192 Kbps, 48.0 KHz, 2 ch
Аудио#2: Английский: 384 Kbps, 48.0 KHz, 6 ch




General
Complete name : Otvetniy.udar.(2.sezon.01.seriya.iz.10).2011.XviD.BDRip.avi
Format : AVI
Format/Info : Audio Video Interleave
File size : 763 MiB
Duration : 45mn 39s
Overall bit rate : 2 337 Kbps
Writing application : VirtualDubModRus 1.5.10.2 (build 2542/release)
Writing library : VirtualDubMod build 2542/release

Video
ID : 0
Format : MPEG-4 Visual
Format profile : Advanced Simple@L5
Format settings, BVOP : No
Format settings, QPel : No
Format settings, GMC : No warppoints
Format settings, Matrix : Default (MPEG)
Codec ID : XVID
Codec ID/Hint : XviD
Duration : 45mn 39s
Bit rate : 1 747 Kbps
Width : 720 pixels
Height : 400 pixels
Display aspect ratio : 16:9
Frame rate : 25.000 fps
Color space : YUV
Chroma subsampling : 4:2:0
Bit depth : 8 bits
Scan type : Progressive
Bits/(Pixel*Frame) : 0.243
Stream size : 570 MiB (75%)
Writing library : XviD 1.2.1 (UTC 2008-12-04)

Audio #1
ID : 1
Format : AC-3
Format/Info : Audio Coding 3
Mode extension : CM (complete main)
Codec ID : 2000
Duration : 45mn 39s
Bit rate mode : Constant
Bit rate : 192 Kbps
Channel(s) : 2 channels
Channel positions : Front: L R
Sampling rate : 48.0 KHz
Bit depth : 16 bits
Stream size : 62.7 MiB (8%)
Alignment : Split accross interleaves
Interleave, duration : 40 ms (1.00 video frame)
Interleave, preload duration : 500 ms

Audio #2
ID : 2
Format : AC-3
Format/Info : Audio Coding 3
Mode extension : CM (complete main)
Codec ID : 2000
Duration : 45mn 39s
Bit rate mode : Constant
Bit rate : 384 Kbps
Channel(s) : 6 channels
Channel positions : Front: L C R, Side: L R, LFE
Sampling rate : 48.0 KHz
Bit depth : 16 bits
Stream size : 125 MiB (16%)
Alignment : Split accross interleaves
Interleave, duration : 40 ms (1.00 video frame)
Interleave, preload duration : 500 ms


Ответный удар скачать торрент


pb.wtf



Скачать Ответный удар через торрент http://pic.kartinco.top/images/3/ebtz5tgacq.jpg Скачать фильм Ответный удар через торрент бесплантно в хорошем качестве Описание: Джон Портер накануне вторжения в Ирак в 2003 году руководит специальным подразделением в операции по спасению заложника в центре ... 9.8 10 19
Info! Золотая раздача, скачанное не засчитывается.
Торрент: Зарегистрирован [2013-09-11 14:46] · скачан: 138 раз
Статус: √ проверено
Размер: 7.34 GB
Как cкачать? Как скачать Ответный удар через торрент | qTorrent

28-11-2019 20:33  

Отключить всю рекламу на сайте

28-09-2013 10:23 Ответный удар Скачать торрент  

Хороший сериалpb.wtf



27-12-2013 16:07 Ответный удар Скачать торрент  

Спамить прекращаем
Модератор
pb.wtf



  Спам, выдал Messa-fan
    Дорогой пользователь! Огромная просьба, поблагодарите релизера, оцените раздачу и оставьте свои комментарий, если Вы скачали Ответный удар через торрент бесплатно! Внесите свою лепту в развитие PiratBit!
    Комментировать посты могут только пользователи прошедшие не сложную регистрацию
    Показать сообщения:    

    Ответный удар через торрент
    Скачать бесплатно Ответный удар
    Ответный удар скачать торрент
    Ответный удар смотреть онлайн
    Cкачать фильм Ответный удар бесплатно
    Ответный удар скачать торрент в хорошем качестве
    Ответный удар смотреть онлайн бесплатно в хорошем качестве


    Вы не можете начинать темы
    Вы не можете отвечать на сообщения
    Вы не можете редактировать свои сообщения
    Вы не можете удалять свои сообщения
    Вы не можете голосовать в опросах
    Вы не можете прикреплять файлы к сообщениям
    Вы можете скачивать файлы