1 сезон

1 сезон

iTunes

1

КиноПоиск HD

Кинопоиск HD

iTunes

13

1 сезон

RePack

30

Ultimate

ВАЖНО

ИГРА 18+

pack

RePack

MK11
pack

Легкие деньги

RePack

jed

RePack

fifa19

RePack

RDR2

RePack

NEED FOR SPEED™ PAYBACK

4 сезон

9 сезон

Бесстыжие 9 сезон

Все сериалы

все сериалы на PB.wtf

RePack

FAR CRY 5
  
Magnet ссылка

Шарлотта Грей / Charlotte Grey (Джиллиан Армстронг / Gillian Armstrong) [2001, США, Драма, DVDRip] MVO + Orig + Sub rus pb.wtf

Шарлотта Грей через торрент pb.wtf

Размер: 1.37 GB | Добавлен: 7 лет 7 мес. назад | Торрент скачан:23 раза
Скачать  

12-09-2013 13:53 Шарлотта Грей Скачать торрент  

Шарлотта Грей / Charlotte Gray
Год выпуска: 2001
Страна: Германия, Великобритания, Австралия,
Жанр: Война, драма, мелодрама,
Продолжительность: 01:56:21
Перевод: Профессиональный (многоголосый закадровый)
Субтитры: есть русские(Внешние)

Режиссер: Джиллиан Армстронг / Gillian Armstrong



В ролях: Кейт Бланшетт, Билли Крадап, Майкл Гэмбон, Руперт Пенри-Джонс, Джеймс Флит, Шарлотт МакДугалл, Роберт Хэндс и др.,

Описание: Молодую шотландку Шарлотту Грей сбрасывают на парашюте в немецком тылу на юге Франции. Только ей известно, что у нее двойная миссия. Официально она была завербована британским правительством для выполнения специальной операции по связи с местными группами Сопротивления, которые борются партизанскими методами с оккупационной немецкой армией. Неофициально она ищет своего возлюбленного Питера — английского летчика, пропавшего без вести после того, как был сбит его самолет.
По мере того, как более тесными становятся связи Шарлотты с борцами Сопротивления, которых возглавляет Жюльен Левад, она начинает понимать, что ее любовь к Франции и ее народу навсегда изменит ее жизнь.

Невероятно красивый и глубокий фильм! Захватывает с первой минуты и держит у экрана до самых финальных титров.
Кейт Бланшет восхитительная актриса, она передает всю гамму чувств, и, может, даже свыше. В фильме немало моментов, которые можно понять только разумом, а не созерцая. Где-то молчание, где-то взгляд…
Это часть трилогии, которая включает романы «Пение птиц» и «Девочка и Золотой Лев».По романам английского писателя Себастьяна Чарльза Фолкса («Девочка и золотой лев» 1989г., «Пение птиц» 1993г., «Шарлотта Грей» 1998г.).


Качество: DVDRip
Формат: AVI
Видео кодек: XviD
Аудио кодек: MP3
Видео: 704x384 (16:9), 25.000 fps, 1 416 Kbps
Аудио#1: Русский 48 kHz, MPEG Layer 3, 2 ch, ~128.00 kbps avg
Аудио#2: Английский 48 kHz, MPEG Layer 3, 2 ch, ~128.00 kbps avg




General
Complete name : Charlotta_GL.avi
Format : AVI
Format/Info : Audio Video Interleave
File size : 1.37 GiB
Duration : 1h 56mn
Overall bit rate : 1 686 Kbps
Writing application : FairUse Wizard
Writing library : The best and REALLY easy backup tool

Video
ID : 0
Format : MPEG-4 Visual
Format profile : Advanced Simple@L5
Format settings, BVOP : Yes
Format settings, QPel : No
Format settings, GMC : No warppoints
Format settings, Matrix : Default (MPEG)
Muxing mode : Packed bitstream
Codec ID : XVID
Codec ID/Hint : XviD
Duration : 1h 56mn
Bit rate : 1 416 Kbps
Width : 704 pixels
Height : 384 pixels
Display aspect ratio : 16:9
Frame rate : 25.000 fps
Color space : YUV
Chroma subsampling : 4:2:0
Bit depth : 8 bits
Scan type : Progressive
Bits/(Pixel*Frame) : 0.209
Stream size : 1.15 GiB (84%)
Writing library : XviD 1.2.0.dev47 (UTC 2006-11-01)

Audio #1
ID : 1
Format : MPEG Audio
Format version : Version 1
Format profile : Layer 3
Mode : Joint stereo
Codec ID : 55
Codec ID/Hint : MP3
Duration : 1h 56mn
Bit rate mode : Constant
Bit rate : 128 Kbps
Channel(s) : 2 channels
Sampling rate : 48.0 KHz
Stream size : 107 MiB (8%)
Alignment : Aligned on interleaves
Interleave, duration : 40 ms (1.00 video frame)
Interleave, preload duration : 504 ms
Writing library : LAME3.97
Encoding settings : -m j -V 4 -q 2 -lowpass 17 -b 128

Audio #2
ID : 2
Format : MPEG Audio
Format version : Version 1
Format profile : Layer 3
Mode : Joint stereo
Codec ID : 55
Codec ID/Hint : MP3
Duration : 1h 56mn
Bit rate mode : Constant
Bit rate : 128 Kbps
Channel(s) : 2 channels
Sampling rate : 48.0 KHz
Stream size : 107 MiB (8%)
Alignment : Aligned on interleaves
Interleave, duration : 40 ms (1.00 video frame)
Interleave, preload duration : 504 ms
Writing library : LAME3.97
Encoding settings : -m j -V 4 -q 2 -lowpass 17 -b 128

pb.wtf



Скачать Шарлотта Грей через торрент https://pic.kartinco.top/images/3/sbnnvlpfqx.jpg Скачать фильм Шарлотта Грей через торрент бесплантно в хорошем качестве Описание: Молодую шотландку Шарлотту Грей сбрасывают на парашюте в немецком тылу на юге Франции. Только ей известно, что у нее двойная ... 9.3 10 4
Info! Золотая раздача, скачанное не засчитывается.
Торрент: Зарегистрирован [2013-09-12 13:53] · скачан: 23 раз
Статус: √ проверено
Размер: 1.37 GB
Как cкачать? Как скачать Шарлотта Грей через торрент | UTorrent



Последний раз редактировалось: Assasinca (2013-09-12 14:40), всего редактировалось 4 раз(а)

28-11-2019 20:33  

Отключить всю рекламу на сайте

12-09-2013 14:09 Шарлотта Грей Скачать торрент  

Assasinca писал(а):

Субтитры: есть (Внешние)

Укажите какие субтитры рус.англ.pb.wtf



12-09-2013 14:12 Шарлотта Грей Скачать торрент  

Если в описании указать что это про бабушку Саши Грей то скачавших будет намного больше )pb.wtf



12-09-2013 14:21 Шарлотта Грей Скачать торрент  

maxllmus писал(а):

Если в описании указать что это про бабушку Саши Грей то скачавших будет намного больше )

Это часть трилогии, которая включает романы «Пение птиц» и «Девочка и Золотой Лев».pb.wtf



12-09-2013 14:29 Шарлотта Грей Скачать торрент  

Assasinca писал(а):

maxllmus писал(а):

Если в описании указать что это про бабушку Саши Грей то скачавших будет намного больше )

Это часть трилогии, которая включает романы «Пение птиц» и «Девочка и Золотой Лев».

Ну вот пришел поручик и все опошлил....pb.wtf



12-09-2013 17:26 Шарлотта Грей Скачать торрент  

Я обязательно скачаю этот фильм, потому что смотрел его ,но уверен что для любителей "поручика ржевского"," фантома", "обливиона"," гадкий я,"
"орудия смерти" и так далее можете не качать вам это кино точно не понравится.pb.wtf



    Дорогой пользователь! Огромная просьба, поблагодарите релизера, оцените раздачу и оставьте свои комментарий, если Вы скачали Шарлотта Грей через торрент бесплатно! Внесите свою лепту в развитие PiratBit!
    Комментировать посты могут только пользователи прошедшие не сложную регистрацию
    Показать сообщения:    

    Шарлотта Грей через торрент
    Скачать бесплатно Шарлотта Грей
    Шарлотта Грей скачать торрент
    Шарлотта Грей смотреть онлайн
    Cкачать фильм Шарлотта Грей бесплатно
    Шарлотта Грей скачать торрент в хорошем качестве
    Шарлотта Грей смотреть онлайн бесплатно в хорошем качестве


    Вы не можете начинать темы
    Вы не можете отвечать на сообщения
    Вы не можете редактировать свои сообщения
    Вы не можете удалять свои сообщения
    Вы не можете голосовать в опросах
    Вы не можете прикреплять файлы к сообщениям
    Вы можете скачивать файлы