Ссылка на приватное зеркало нашего сайта всего за 1$. Внимание количество ограничено!!!

2 сезон

iTunes

1 сезон

1

iTunes

iTunes

iTunes

1 сезон

RePack

30

ИГРА 18+

pack

ВАЖНО

!!Акция!!

Alien_RageХит недели

RePack

MK11
pack

Забери бонус

RePack

jed

!!Акция!!

Alien_Rage

RePack

fifa19

RePack

Assassins Creed: Odyssey

RePack

NEED FOR SPEED™ PAYBACK

4 сезон

9 сезон

Бесстыжие 9 сезон

Все сериалы

все сериалы на PB.wtf

RePack

FAR CRY 5
  

Макс Шмелинг: Боец Рейха / Max Schmeling (Уве Болл / Uwe Boll) [2010, Германия, Хорватия, драма, военный, биография, HDRip, Профессиональный (многоголосый, закадровый) [лицензия] pb.wtf

Макс Шмелинг: Боец Рейха через торрент pb.wtf

Размер: 2.04 GB | Добавлен: 7 лет 1 мес. назад | Торрент скачан:121 раз
Скачать  

12-09-2013 14:45 Макс Шмелинг: Боец Рейха Скачать торрент  

Макс Шмелинг: Боец Рейха / Max Schmeling

«Боец Рейха»

  • Год выпуска:2010
  • Страна:Германия, Хорватия
  • Жанр:драма, военный, биография, спорт

  • Продолжительность: 02:02:39
  • Перевод:Профессиональный (многоголосый, закадровый) [лицензия]

  • Субтитры: Нет
    • Режиссер:Уве Болл / Uwe Boll
    • Сценарий: Тимо Берндт / Timo Berndt
    • Продюсер: Дэн Кларк / Dan Clarke, Вольфганг Херольд / Wolfgang Herold, Сандра Бассо / Sandra Basso, Уве Болл / Uwe Boll, Vinko Grubisic

  • В ролях:Генри Маске (Max Schmeling), Хайно Ферх (Max Machon), Владимир Вайгл (Joe Jacobs), Артур Абрахам (Richard Vogt), Сюзанна Уэст (Anny Ondra), Арвед Бирнбаум (Hans v. Tschammer u. Osten), Кристиан Карманн (Hitler's Adjutant Lehback), Эллиот Кауэн (Alan Walken), Йоан Пабло Эрнандес (Joe Louis), Клаус Шиндлер (Surgeon Major Schönn), Энад Личина (Jack Sharkey), Манфред Вольке (Sharkey's Trainer)
    • Описание:
      Фильм основан на биографии известного немецкого боксера Макса Шмелинга, бывшего в 1930-1932 годах чемпионом мира в тяжелом весе. Расцвет карьеры Шмелинга пришелся на время правления в стране нацистов, когда знаменитый боксер помимо своей воли стал символом режима. Понимая, что победы на ринге делают его практически неприкосновенным для правящей партии, Шмелинг решает остаться в стране, несмотря на то, что это решение подталкивает его к непростому моральному выбору.
      Будучи женатым на девушке еврейского происхождения, помогая своим друзьям и соседям спасаться от преследования, спортсмен в то же самое время должен примерно исполнять обязанности символа нацистской Германии - посещать приемы и позировать репортерам рядом с Гитлером и Геббельсом. Но у Шмелинга есть преимущество перед теми, кого он считает своими врагами - он точно знает: чтобы победить, нужно изучить уязвимые места соперника.

  • Рейтинг
    kinopoisk.ru: 6.598 (436)
    imdb.com: 4.60 (549)
    • Качество:HDRip
    • Формат:AVI
    • Видео кодек: XviD
    • Аудио кодек:AC3
    • Видео: XviD, 720x304 (2.35:1), 1464 kbps, 24 fps, 0,279 bpp
    • Аудио №1: AC3 / 5.1 / 48 kHz / 448 kbps / 16 bit- Russian
      Аудио №2: AC3 / 5.1 / 48 kHz / 448 kbps / 16 bit/ German


    General
    Complete name : D:ТорентыMaks.Shmelig.2010.P.HDRip.avi
    Format : AVI
    Format/Info : Audio Video Interleave
    Format profile : OpenDML
    File size : 2.04 GiB
    Duration : 2h 2mn
    Overall bit rate : 2 379 Kbps
    Writing application : VirtualDubMod 1.5.10.3 | www.virtualdub-fr.org || (build 2550/release)
    Writing library : VirtualDubMod build 2550/release

    Video
    ID : 0
    Format : MPEG-4 Visual
    Format profile : Advanced Simple@L5
    Format settings, BVOP : 2
    Format settings, QPel : No
    Format settings, GMC : No warppoints
    Format settings, Matrix : Default (H.263)
    Codec ID : XVID
    Codec ID/Hint : XviD
    Duration : 2h 2mn
    Bit rate : 1 465 Kbps
    Width : 720 pixels
    Height : 304 pixels
    Display aspect ratio : 2.35:1
    Frame rate : 24.000 fps
    Color space : YUV
    Chroma subsampling : 4:2:0
    Bit depth : 8 bits
    Scan type : Progressive
    Compression mode : Lossy
    Bits/(Pixel*Frame) : 0.279
    Stream size : 1.25 GiB (62%)
    Writing library : XviD 1.2.1 (UTC 2008-12-04)

    Audio #1
    ID : 1
    Format : AC-3
    Format/Info : Audio Coding 3
    Mode extension : CM (complete main)
    Codec ID : 2000
    Duration : 2h 2mn
    Bit rate mode : Constant
    Bit rate : 448 Kbps
    Channel(s) : 6 channels
    Channel positions : Front: L C R, Side: L R, LFE
    Sampling rate : 48.0 KHz
    Bit depth : 16 bits
    Compression mode : Lossy
    Delay relative to video : 1s 0ms
    Stream size : 393 MiB (19%)
    Alignment : Split accross interleaves
    Interleave, duration : 42 ms (1.00 video frame)
    Interleave, preload duration : 500 ms

    Audio #2
    ID : 2
    Format : AC-3
    Format/Info : Audio Coding 3
    Mode extension : CM (complete main)
    Codec ID : 2000
    Duration : 2h 2mn
    Bit rate mode : Constant
    Bit rate : 448 Kbps
    Channel(s) : 6 channels
    Channel positions : Front: L C R, Side: L R, LFE
    Sampling rate : 48.0 KHz
    Bit depth : 16 bits
    Compression mode : Lossy
    Stream size : 393 MiB (19%)
    Alignment : Split accross interleaves
    Interleave, duration : 42 ms (1.00 video frame)
    Interleave, preload duration : 500 ms


    © Оформление by Vetalpb.wtf



  • Скачать Макс Шмелинг: Боец Рейха через торрент http://i6.imageban.ru/out/2013/09/12/2b7fa399e4a76e7a01744568bac9b036.png Скачать фильм Макс Шмелинг: Боец Рейха через торрент бесплантно в хорошем качестве Описание:Фильм основан на биографии известного немецкого боксера Макса Шмелинга, бывшего в 1930-1932 годах чемпионом мира в тяжелом весе. ... 9.9 10 8
    Info! Золотая раздача, скачанное не засчитывается.
    Торрент: Зарегистрирован [2013-09-12 14:45] · скачан: 121 раз
    Статус: √ проверено
    Размер: 2.04 GB
    Как cкачать? Как скачать Макс Шмелинг: Боец Рейха через торрент | qTorrent

    28-11-2019 20:33  

    Отключить всю рекламу на сайте

    12-09-2013 15:39 Макс Шмелинг: Боец Рейха Скачать торрент  

    Как фильм???pb.wtf



    12-09-2013 17:27 Макс Шмелинг: Боец Рейха Скачать торрент  

    stivens писал(а):

    Как фильм???

    Уве Болл :)))))pb.wtf



      Дорогой пользователь! Огромная просьба, поблагодарите релизера, оцените раздачу и оставьте свои комментарий, если Вы скачали Макс Шмелинг: Боец Рейха через торрент бесплатно! Внесите свою лепту в развитие PiratBit!
      Комментировать посты могут только пользователи прошедшие не сложную регистрацию
      Показать сообщения:    

      Макс Шмелинг: Боец Рейха через торрент
      Скачать бесплатно Макс Шмелинг: Боец Рейха
      Макс Шмелинг: Боец Рейха скачать торрент
      Макс Шмелинг: Боец Рейха смотреть онлайн
      Cкачать фильм Макс Шмелинг: Боец Рейха бесплатно
      Макс Шмелинг: Боец Рейха скачать торрент в хорошем качестве
      Макс Шмелинг: Боец Рейха смотреть онлайн бесплатно в хорошем качестве


      Вы не можете начинать темы
      Вы не можете отвечать на сообщения
      Вы не можете редактировать свои сообщения
      Вы не можете удалять свои сообщения
      Вы не можете голосовать в опросах
      Вы не можете прикреплять файлы к сообщениям
      Вы можете скачивать файлы