Ссылка на приватное зеркало нашего сайта всего за 1$. Внимание количество ограничено!!!

2 сезон

iTunes

1 сезон

1

iTunes

iTunes

iTunes

1 сезон

RePack

30

ИГРА 18+

pack

ВАЖНО

!!Акция!!

Alien_RageХит недели

RePack

MK11
pack

Забери бонус

RePack

jed

!!Акция!!

Alien_Rage

RePack

fifa19

RePack

Assassins Creed: Odyssey

RePack

NEED FOR SPEED™ PAYBACK

4 сезон

9 сезон

Бесстыжие 9 сезон

Все сериалы

все сериалы на PB.wtf

RePack

FAR CRY 5
  

13-й район / Banlieue 13 (Пьер Морель) [2004 г., Боевик, криминал, BDRip 1080p, Дубляж + Оригинал] pb.wtf

13-й район через торрент pb.wtf

Размер: 7.95 GB | Добавлен: 7 лет 1 мес. назад | Торрент скачан:70 раз
Скачать  

12-09-2013 14:52 13-й район Скачать торрент  

13-й район / Banlieue 13
Год выпуска: 2004
Страна: Франция
Жанр: Боевик, криминал,
Продолжительность: 01:24:34
Перевод: Дубляж + Оригинал
Субтитры: Русские

Режиссер: Пьер Морель

В ролях: Сирил Раффаэлли, Дэвид Белль, Тони Д’Амарио, Биби Насери, Дани Вериссимо, Франсуа Шатто, Николас Войрион, Патрик Оливье, Самир Гесми, Тарик Бусехин,

Описание: 2013 год, Париж, из-за разгула преступности некоторые особо опасные районы французской столицы превращены в закрытые зоны и отгорожены от благополучных кварталов бетонной стеной. За ней бурлит совсем другая жизнь: здесь процветает торговля наркотиками и оружием, здесь даже дети не выходят из дома без оружия, здесь давно не работают школы и поликлиники, здесь полиция не стоит на страже закона, а лишь защищает себя или же сама поддерживает беззаконие. Главарю одной из банд удается завладеть нейтронной бомбой. Чтобы обезвредить ее, в 13-й район отправляется офицер спецназ Дамьен. Проникать в опасные зоны — его профессия, однако на этот раз ему все-таки нужен проводник. Союзником Дамьена становится Лейто, отчаянный парень, сестра которого похищена тем же самым главарем…

Качество: BDRip 1080p
Формат: MKV
Видео кодек: H.264
Аудио кодек: AC3
Видео: (1920x816),12558 Кбит/сек, 23,976 кадр/сек
Аудио#1: AC-3, 6 ch, 448 kbps (Rus) 48.0 KHz
Аудио#2: AC-3, 6 ch, 448 kbps (France) 48.0 KHz

Format : Matroska
Format version : Version 4 / Version 2
File size : 7.95 GiB
Duration : 1h 24mn
Overall bit rate : 13.5 Mbps
Movie name : 13-й район.(2004).BDRip.1080p.(DVD9).[NoLimits-Team]
Encoded date : UTC 2013-04-04 08:38:20
Writing application : mkvmerge v6.0.0 ('Coming Up For Air') built on Jan 20 2013 09:52:00
Writing library : libebml v1.3.0 + libmatroska v1.4.0

Video
ID : 1
Format : AVC
Format/Info : Advanced Video Codec
Format profile : High@L4.1
Format settings, CABAC : Yes
Format settings, ReFrames : 5 frames
Codec ID : V_MPEG4/ISO/AVC
Duration : 1h 24mn
Bit rate : 12.6 Mbps
Width : 1 920 pixels
Height : 816 pixels
Display aspect ratio : 2.35:1
Frame rate mode : Constant
Frame rate : 23.976 fps
Color space : YUV
Chroma subsampling : 4:2:0
Bit depth : 8 bits
Scan type : Progressive
Bits/(Pixel*Frame) : 0.334
Stream size : 7.26 GiB (91%)
Title : 13-й район.(2004).BDRip.1080p.(DVD9).[NoLimits-Team]
Writing library : x264 core 130 r2273 b3065e6
Encoding settings : cabac=1 / ref=5 / deblock=1:0:0 / analyse=0x3:0x133 / me=umh / subme=11 / psy=1 / psy_rd=1.00:0.00 / mixed_ref=1 / me_range=64 / chroma_me=1 / trellis=2 / 8x8dct=1 / cqm=0 / deadzone=21,11 / fast_pskip=0 / chroma_qp_offset=-2 / threads=9 / lookahead_threads=2 / sliced_threads=0 / nr=0 / decimate=1 / interlaced=0 / bluray_compat=0 / constrained_intra=0 / bframes=12 / b_pyramid=2 / b_adapt=2 / b_bias=0 / direct=3 / weightb=1 / open_gop=0 / weightp=2 / keyint=240 / keyint_min=23 / scenecut=40 / intra_refresh=0 / rc_lookahead=60 / rc=2pass / mbtree=1 / bitrate=12558 / ratetol=1.0 / qcomp=0.60 / qpmin=0 / qpmax=69 / qpstep=4 / cplxblur=20.0 / qblur=0.5 / ip_ratio=1.40 / aq=1:1.00
Language : English
Default : Yes
Forced : No

Audio #1
ID : 2
Format : AC-3
Format/Info : Audio Coding 3
Mode extension : CM (complete main)
Format settings, Endianness : Big
Codec ID : A_AC3
Duration : 1h 24mn
Bit rate mode : Constant
Bit rate : 448 Kbps
Channel(s) : 6 channels
Channel positions : Front: L C R, Side: L R, LFE
Sampling rate : 48.0 KHz
Bit depth : 16 bits
Compression mode : Lossy
Stream size : 271 MiB (3%)
Title : Дублированный
Language : Russian
Default : No
Forced : No

Audio #2
ID : 3
Format : AC-3
Format/Info : Audio Coding 3
Mode extension : CM (complete main)
Format settings, Endianness : Big
Codec ID : A_AC3
Duration : 1h 24mn
Bit rate mode : Constant
Bit rate : 448 Kbps
Channel(s) : 6 channels
Channel positions : Front: L C R, Side: L R, LFE
Sampling rate : 48.0 KHz
Bit depth : 16 bits
Compression mode : Lossy
Stream size : 271 MiB (3%)
Title : Английский
Language : English
Default : No
Forced : No

Text
ID : 4
Format : UTF-8
Codec ID : S_TEXT/UTF8
Codec ID/Info : UTF-8 Plain Text
Title : Русские (полные)
Language : Russian
Default : No
Forced : No

Menu
00:00:00.000 : :Opening Credits
00:02:43.747 : :K2 Pays a Visit
00:11:38.239 : :The Boss Is Unhappy
00:13:06.994 : :Kidnapped & Rescued
00:20:00.740 : :Into the Fire
00:22:49.158 : :Damien, Undercover
00:33:28.213 : :A New Assignment
00:36:15.755 : :Leito Meets Damien
00:43:33.817 : :Leito & Damien Team Up
00:49:42.102 : :Into Taha's Lair
00:55:45.715 : :A New Plan
01:02:24.780 : :Chasing Leito & Damien
01:05:45.313 : :An Uneasy Alliance
01:08:58.840 : :Friends & Enemies
01:14:48.856 : :Our Heros Drop a Bomb
01:20:34.534 : :End Credits

pb.wtf



Скачать 13-й район через торрент http://pic.kartinco.top/images/3/omnsskyxci.jpg Скачать фильм 13-й район через торрент бесплантно в хорошем качестве Описание: 2013 год, Париж, из-за разгула преступности некоторые особо опасные районы французской столицы превращены в закрытые зоны и ... 10 10 9
Info! Золотая раздача, скачанное не засчитывается.
Торрент: Зарегистрирован [2013-09-12 14:52] · скачан: 70 раз
Статус: √ проверено
Размер: 7.95 GB
Как cкачать? Как скачать 13-й район через торрент | qTorrent

% Раздел Тема Автор DL S | L
Сборники и Сиквелы (48-60 fps) [ 8.28 GB ] 13-й район: Дилогия / Banlieue 13: Dilogy [2004 2009 BDRip 720pDUB] 60fps от R.G. HD-Films slaventi-69 Скачать
1 | 1
Фильмы [HD 720p, 1080p] (Хороший звук DUB, MVO) [ 9.14 GB ] 13-й район: Ультиматум / Banlieue 13 Ultimatum [2009 BDRip 1080p + Оригинал] Бумер Скачать
1 | 0
Сборники на DVD и Сиквелы [DVDrip, WEB-DLRip, HDrip, BDRip] [ 3.34 GB ] 13-й район: Дилогия / Banlieue 13 Dilogy [2004 2009 BDRip 720p] .::Sergey::. Скачать
1 | 0
Фильмы 2009 [ 1.37 GB ] 13-й район: Ультиматум / Banlieue 13 Ultimatum [2009 DVDRip] DEVI Скачать
1 | 0
Фильмы 2013 [DVDrip, WEB-DLRip, HDrip] [ 1.5 GB ] 13-й район / Banlieue 13 [2004 HDRip-AVC ] От R.G. PiratFilms White Smoke Скачать
1 | 0
Сборники (HD Video) [ 35.58 GB ] 13-й Район / Banlieue 13 [2004-2009 BD-Remux 1080p ] Артронах Скачать
1 | 1
Сборники (HD Video) [ 17.34 GB ] 13-й Район / Banlieue 13 [2004-2009 BDRip 1080p ] Артронах Скачать
1 | 0

28-11-2019 20:33  

Отключить всю рекламу на сайте

    Дорогой пользователь! Огромная просьба, поблагодарите релизера, оцените раздачу и оставьте свои комментарий, если Вы скачали 13-й район через торрент бесплатно! Внесите свою лепту в развитие PiratBit!
    Комментировать посты могут только пользователи прошедшие не сложную регистрацию
    Показать сообщения:    

    13-й район через торрент
    Скачать бесплатно 13-й район
    13-й район скачать торрент
    13-й район смотреть онлайн
    Cкачать фильм 13-й район бесплатно
    13-й район скачать торрент в хорошем качестве
    13-й район смотреть онлайн бесплатно в хорошем качестве


    Вы не можете начинать темы
    Вы не можете отвечать на сообщения
    Вы не можете редактировать свои сообщения
    Вы не можете удалять свои сообщения
    Вы не можете голосовать в опросах
    Вы не можете прикреплять файлы к сообщениям
    Вы можете скачивать файлы