2 сезон

iTunes

MVO

1

2 сезон

iTunes

iTunes

1 сезон

RePack

30

Ultimate

ВАЖНО

ИГРА 18+

pack

RePack

MK11
pack

Легкие деньги

RePack

jed

RePack

fifa19

RePack

RDR2

RePack

NEED FOR SPEED™ PAYBACK

4 сезон

9 сезон

Бесстыжие 9 сезон

Все сериалы

все сериалы на PB.wtf

RePack

FAR CRY 5

Anonymous, доброе утро, мы не успеваем собрать деньги на оплату серверов за декабрь и январь, помогите нам пожалуйста в это трудное время. В качестве благодарности мы отключим Вам всю рекламу на сайте (укажите свой ник в строку Ваше имя)!

×
  
Magnet ссылка

Властелин любви / The Look of Love (Рейнир Лингдаль / Reynir Lyngdal) [2013 г., Драма, комедия, биография, BDRip, Дубляж, Лицензия] pb.wtf

Властелин любви через торрент pb.wtf

Размер: 1.5 GB | Добавлен: 7 лет 4 мес. назад | Торрент скачан:363 раза
Скачать  

12-09-2013 18:05 Властелин любви Скачать торрент  

Властелин любви / The Look of Love
Год выпуска: 2013
Страна: Великобритания, США / Baby Cow Films, Film Four Ltd, Revolution Films
Жанр: Драма, комедия, биография,
Продолжительность: 01:41:01
Перевод: Дубляж, Лицензия
Субтитры: Английские

Режиссер: Рейнир Лингдаль / Reynir Lyngdal



В ролях: Стив Куган, Анна Фрил, Имоджен Путс, Тэмсин Эгертон, Крис Эддисон, Джеймс Лэнс, Ширли Хендерсон, Дэвид Уоллиамс, Мэтт Лукас, Саймон Бёрд...,

Описание: Пауль Раймонд был прозван в прессе «Королём Сохо» из-за принадлежащего ему огромного клуба и невероятного количества недвижимого имущества, что наряду с его порнобизнесом принесло ему состояние в миллиарды фунтов.

Качество: BDRip-AVC
Формат: MKV
Видео кодек: H.264
Аудио кодек: AC3
Видео: 1012x430 (2,35:1), 24,000 fps, 1296 Кbps, 0.124 bit/pixel
Аудио#1: 48 kHz, AC3 Dolby Digital, 3/2 (L,C,R,l,r) + LFE ch, 384.00 kbps | RUS
Аудио#2: 48 kHz, AC3 Dolby Digital, 3/2 (L,C,R,l,r) + LFE ch, 448.00 kbps | ENG

Релиз группы:
Автор рипа: potroks





Общее
Уникальный идентификатор : 246554552279733296912919098508175650578 (0xB97CADF4C397464683147CEBCFA6AF12)
Полное имя : Vlastelin.Lubvi.2013.DUAL.BDRip.x264.-HELLYWOOD.mkv
Формат : Matroska
Версия формата : Version 4 / Version 2
Размер файла : 1,50 Гбайт
Продолжительность : 1 ч. 41 м.
Общий поток : 2128 Кбит/сек
Название фильма : HELLYWOOD - rip by potroks
Дата кодирования : UTC 2013-09-12 15:18:27
Программа кодирования : mkvmerge v5.9.0 ('On The Loose') built on Dec 15 2012 16:39:58
Библиотека кодирования : libebml v1.3.0 + libmatroska v1.4.0

Видео
Идентификатор : 1
Формат : AVC
Формат/Информация : Advanced Video Codec
Профиль формата : High@L4.1
Параметр CABAC формата : Да
Параметр ReFrames формата : 11 кадров
Идентификатор кодека : V_MPEG4/ISO/AVC
Продолжительность : 1 ч. 41 м.
Битрейт : 1296 Кбит/сек
Ширина : 1012 пикселей
Высота : 430 пикселей
Соотношение сторон : 2,35:1
Режим частоты кадров : Постоянный
Частота кадров : 24,000 кадра/сек
Цветовое пространство : YUV
Субдискретизация насыщенности : 4:2:0
Битовая глубина : 8 бит
Тип развёртки : Прогрессивная
Бит/(Пиксели*Кадры) : 0.124
Размер потока : 906 Мбайт (59%)
Заголовок : The Look of Love
Библиотека кодирования : x264 core 130 r2273 b3065e6
Настройки программы : cabac=1 / ref=11 / deblock=1:-3:-2 / analyse=0x3:0x133 / me=umh / subme=11 / psy=1 / psy_rd=1.05:0.00 / mixed_ref=1 / me_range=48 / chroma_me=1 / trellis=2 / 8x8dct=1 / cqm=0 / deadzone=21,11 / fast_pskip=0 / chroma_qp_offset=-2 / threads=8 / lookahead_threads=2 / sliced_threads=0 / nr=0 / decimate=0 / interlaced=0 / bluray_compat=0 / constrained_intra=0 / bframes=12 / b_pyramid=2 / b_adapt=2 / b_bias=0 / direct=3 / weightb=1 / open_gop=0 / weightp=2 / keyint=250 / keyint_min=23 / scenecut=40 / intra_refresh=0 / rc_lookahead=100 / rc=2pass / mbtree=1 / bitrate=1296 / ratetol=1.0 / qcomp=0.70 / qpmin=0 / qpmax=69 / qpstep=4 / cplxblur=20.0 / qblur=0.5 / vbv_maxrate=20000 / vbv_bufsize=20000 / nal_hrd=none / ip_ratio=1.35 / aq=2:0.80
Язык : English
Default : Да
Forced : Нет

Аудио #1
Идентификатор : 2
Формат : AC-3
Формат/Информация : Audio Coding 3
Расширение режима : CM (complete main)
Параметр Endianness формата : Big
Идентификатор кодека : A_AC3
Продолжительность : 1 ч. 41 м.
Вид битрейта : Постоянный
Битрейт : 384 Кбит/сек
Каналы : 6 каналов
Расположение каналов : Front: L C R, Side: L R, LFE
Частота : 48,0 КГц
Битовая глубина : 16 бит
Метод сжатия : С потерями
Размер потока : 277 Мбайт (18%)
Заголовок : Dub | DD 5.1 @ 384 kbps
Язык : Russian
Default : Да
Forced : Да

Аудио #2
Идентификатор : 3
Формат : AC-3
Формат/Информация : Audio Coding 3
Расширение режима : CM (complete main)
Параметр Endianness формата : Big
Идентификатор кодека : A_AC3
Продолжительность : 1 ч. 41 м.
Вид битрейта : Постоянный
Битрейт : 448 Кбит/сек
Каналы : 6 каналов
Расположение каналов : Front: L C R, Side: L R, LFE
Частота : 48,0 КГц
Битовая глубина : 16 бит
Метод сжатия : С потерями
Размер потока : 324 Мбайт (21%)
Заголовок : Original | DD 5.1 @ 448 kbps
Язык : English
Default : Нет
Forced : Нет

Текст
Идентификатор : 4
Формат : UTF-8
Идентификатор кодека : S_TEXT/UTF8
Идентификатор кодека/Информация : UTF-8 Plain Text
Язык : English
Default : Нет
Forced : Нет

pb.wtf



Скачать Властелин любви через торрент http://uploadpic.ru/img/2013-09/12/vtahqrilf6a83jses9rajawr1.png Скачать фильм Властелин любви через торрент бесплантно в хорошем качестве Описание: Пауль Раймонд был прозван в прессе «Королём Сохо» из-за принадлежащего ему огромного клуба и невероятного количества недвижимого ... 10 10 12
Info! Золотая раздача, скачанное не засчитывается.
Торрент: Зарегистрирован [2013-09-12 18:05] · скачан: 363 раз
Статус: √ проверено
Размер: 1.5 GB
Как cкачать? Как скачать Властелин любви через торрент | UTorrent

% Раздел Тема Автор DL S | L
Фильмы [HD 720p, 1080p] (Хороший звук DUB, MVO) [ 8.78 GB ] Властелин любви / The Look of Love [2013 Биография BDRip 1080p ()] XLASER Скачать
1 | 0
Фильмы [HD 720p, 1080p] (Хороший звук DUB, MVO) [ 4.22 GB ] Властелин любви / The Look of Love [2013 Биография BDRip 720p ()] XLASER Скачать
1 | 0
Фильмы 2013 [DVDrip, WEB-DLRip, HDrip] [ 1.74 GB ] Властелин любви / The Look of Love [2013 Биография DVDRip-AVC ()] XLASER Скачать
1 | 0
Фильмы (DVD фильмы) [ 4.35 GB ] Властелин любви / The Look of Love [2013 биография DVD5] R5 voovaz Скачать
1 | 0
Фильмы 2013 [DVDrip, WEB-DLRip, HDrip] [ 1.44 GB ] Властелин любви / The Look of Love [2013 биография HDRip-AVC лицензия] МАКС1 Скачать
1 | 0
Фильмы 2013 [DVDrip, WEB-DLRip, HDrip] [ 1.37 GB ] Властелин любви / The Look of Love [2013 биография HDRip [ лицензия ] ] Ворон Скачать
1 | 0

28-11-2019 20:33  

Отключить всю рекламу на сайте

    Дорогой пользователь! Огромная просьба, поблагодарите релизера, оцените раздачу и оставьте свои комментарий, если Вы скачали Властелин любви через торрент бесплатно! Внесите свою лепту в развитие PiratBit!
    Комментировать посты могут только пользователи прошедшие не сложную регистрацию
    Показать сообщения:    

    Властелин любви через торрент
    Скачать бесплатно Властелин любви
    Властелин любви скачать торрент
    Властелин любви смотреть онлайн
    Cкачать фильм Властелин любви бесплатно
    Властелин любви скачать торрент в хорошем качестве
    Властелин любви смотреть онлайн бесплатно в хорошем качестве


    Вы не можете начинать темы
    Вы не можете отвечать на сообщения
    Вы не можете редактировать свои сообщения
    Вы не можете удалять свои сообщения
    Вы не можете голосовать в опросах
    Вы не можете прикреплять файлы к сообщениям
    Вы можете скачивать файлы