Ссылка на приватное зеркало нашего сайта всего за 1$. Внимание количество ограничено!!!

2 сезон

iTunes

1 сезон

1

2 сезон

2 сезон

iTunes

1 сезон

RePack

30

Новинка

ВАЖНО

ИГРА 18+

pack

RePack

MK11
pack

Забери бонус

RePack

jed

!!Акция!!

Alien_Rage

RePack

fifa19

RePack

Assassins Creed: Odyssey

RePack

NEED FOR SPEED™ PAYBACK

4 сезон

9 сезон

Бесстыжие 9 сезон

Все сериалы

все сериалы на PB.wtf

RePack

FAR CRY 5
  

Моя жена и дети / My Wife and Kids / Сезон: 4 / Серии 01-30 (30) (Damon Wayans) [2003-2004 г., комедия, PDTVRip] [MVO] pb.wtf

Моя жена и дети через торрент pb.wtf

Размер: 5.15 GB | Добавлен: 7 лет 2 мес. назад | Торрент скачан:15 раз
Скачать  

13-09-2013 11:35 Моя жена и дети Скачать торрент  

Моя жена и дети / My Wife and Kids (Полный 4-ий сезон)

Год выпуска: 2003-2004
Страна: США
Жанр: комедия
Продолжительность: ~00:20
Перевод: Профессиональный (многоголосый, закадровый) (Fox Life)
Режиссер: Damon Wayans

В ролях: Damon Wayans (Michael Kyle), Jazz Raycole (Claire Kyle), George O. Gore II (Michael Kyle Jr.), Tisha Campbell (Janet Marie "Jay" Kyle), Parker McKenna Posey (Kady Kyle)

Описание: МАЙКЛ КАЙЛ – сторонник патриархата, поэтому у него в доме царит особенный стиль управления. Он учит детей жизни с характерным только ему юмором и мудростью. Жене Майкла, ДЖАНЕТ, удается успевать везде – и заниматься домом, и строить карьеру, и обмениваться остротами с мужем. У них есть трое детей: ДЖУНИОР, которому частенько достается от остроумного и строгого папочки; дочка-подросток КЛЭР, у которой постоянно меняется настроение и вечно не хватает денег, и маленькая КЭДИ, которая редко позволяет папе сказать последнее слово.

Качество: PDTVRip
Формат: AVI
Видео кодек: XviD
Аудио кодек: MP3
Видео: 640x480 (1.33:1), 25 fps, XviD build 9 ~1067 kbps avg, 0.14 bit/pixel
Аудио: 48 kHz, MPEG Layer 3, 2 ch, ~128.00 kbps avg
General
Complete name : E:INTERNETMy Wife and Kids-4My.Wife.and.Kids.s04e01.PDTVRip.Rus.1001cinema.avi
Format : AVI
Format/Info : Audio Video Interleave
File size : 171 MiB
Duration : 19mn 47s
Overall bit rate : 1 206 Kbps
Writing application : VirtualDubMod 1.5.10.1 (build 2439/release)
Writing library : VirtualDub build 30091/release

Video
ID : 0
Format : MPEG-4 Visual
Format profile : Simple@L3
Format settings, BVOP : Yes
Format settings, QPel : No
Format settings, GMC : No warppoints
Format settings, Matrix : Default (H.263)
Codec ID : XVID
Codec ID/Hint : XviD
Duration : 19mn 47s
Bit rate : 1 068 Kbps
Width : 640 pixels
Height : 480 pixels
Display aspect ratio : 4:3
Frame rate : 25.000 fps
Color space : YUV
Chroma subsampling : 4:2:0
Bit depth : 8 bits
Scan type : Progressive
Bits/(Pixel*Frame) : 0.139
Stream size : 151 MiB (89%)
Writing library : XviD 0.0.09 (UTC 2003-03-25)

Audio
ID : 1
Format : MPEG Audio
Format version : Version 1
Format profile : Layer 3
Mode : Joint stereo
Mode extension : MS Stereo
Codec ID : 55
Codec ID/Hint : MP3
Duration : 19mn 47s
Bit rate mode : Constant
Bit rate : 128 Kbps
Channel(s) : 2 channels
Sampling rate : 48.0 KHz
Stream size : 18.1 MiB (11%)
Alignment : Split accross interleaves
Interleave, duration : 40 ms (1.00 video frame)
Interleave, preload duration : 500 ms
pb.wtf



Скачать Моя жена и дети через торрент http://s001.radikal.ru/i193/1309/ce/5845b9a718fe.jpg Скачать фильм Моя жена и дети через торрент бесплантно в хорошем качестве Описание: МАЙКЛ КАЙЛ – сторонник патриархата, поэтому у него в доме царит особенный стиль управления. Он учит детей жизни с характерным ... 10 10 3
Info! Золотая раздача, скачанное не засчитывается.
Торрент: Зарегистрирован [2013-09-13 11:35] · скачан: 15 раз
Статус: √ проверено
Размер: 5.15 GB
Как cкачать? Как скачать Моя жена и дети через торрент | qTorrent

28-11-2019 20:33  

Отключить всю рекламу на сайте

13-09-2013 12:13 Моя жена и дети Скачать торрент  

А пятый сезон можешь выложить?pb.wtf



13-09-2013 13:04 Моя жена и дети Скачать торрент  

SmOcKyMaN писал(а):

А пятый сезон можешь выложить?

попозже выложу,пока еще не скачалpb.wtf



15-09-2013 08:51 Моя жена и дети Скачать торрент  

SmOcKyMaN писал(а):

А пятый сезон можешь выложить?

http://pb.wtf/post/623637/#post_623637 pb.wtf



    Дорогой пользователь! Огромная просьба, поблагодарите релизера, оцените раздачу и оставьте свои комментарий, если Вы скачали Моя жена и дети через торрент бесплатно! Внесите свою лепту в развитие PiratBit!
    Комментировать посты могут только пользователи прошедшие не сложную регистрацию
    Показать сообщения:    

    Моя жена и дети через торрент
    Скачать бесплатно Моя жена и дети
    Моя жена и дети скачать торрент
    Моя жена и дети смотреть онлайн
    Cкачать фильм Моя жена и дети бесплатно
    Моя жена и дети скачать торрент в хорошем качестве
    Моя жена и дети смотреть онлайн бесплатно в хорошем качестве


    Вы не можете начинать темы
    Вы не можете отвечать на сообщения
    Вы не можете редактировать свои сообщения
    Вы не можете удалять свои сообщения
    Вы не можете голосовать в опросах
    Вы не можете прикреплять файлы к сообщениям
    Вы можете скачивать файлы