Всегда рабочее зеркало без VPN и Proxy просто перед .vidak.icu напиши любое слово или цифру, Пример http://tk3c.vidak.icu

MVO

MVO

1 сезон

1

1 сезон

iTunes

1 сезон

13

1 сезон

Deluxe

pack

Рекомендуем

Repack

30

ВАЖНО

RePack

MK11

RePack

jed

RePack

fifa19

RePack

RDR2

RePack

NEED FOR SPEED™ PAYBACK

Кинопоиск HD

6 сезон

 Острые козырьки 6 сезон

Все сериалы

все сериалы на PB.wtf

RePack

FAR CRY 5
  
Magnet ссылка

Гладиаторы Рима / Gladiatori di Roma (Иджинио Страффи / Iginio Straffi) [2012 г., мультфильм, комедия, приключения, BDRip-AVC, Дубляж, Лицензия] pb.wtf

Гладиаторы Рима через торрент pb.wtf

Размер: 2.18 GB | Добавлен: 8 лет 10 мес. назад | Торрент скачан:560 раз
Смотреть онлайн Гладиаторы Рима | Скачать    Ребята, помогите собрать деньги на оплату серверов!!!

13-09-2013 17:08 Гладиаторы Рима Скачать торрент  

Гладиаторы Рима / Gladiatori di Roma
Год выпуска: 2012
Страна: Италия / Rainbow S.r.l
Жанр: мультфильм, комедия, приключения,
Продолжительность: 01:34:04
Перевод: Дубляж, Лицензия

Режиссер: Иджинио Страффи / Iginio Straffi



В ролях: Лука Арджентеро, Лаура Кьятти, Джулианна Хаф, Белен Родригес,

Описание: Страшное извержение вулкана разрушает город Помпеи, и маленький Тим остается сиротой. Его спаситель, генерал Кирон, отправляет Тима в школу гладиаторов, но юный лентяй упорно не желает становиться бойцом. Повзрослев, Тим влюбляется в красавицу Лючиллу. Но чтобы покорить её сердце, нужно стать настоящим героем. Прекрасная Диана, богиня охоты и мастер по гладиаторским боям, берется за тренировки Тима перед первым боем. Но получится ли у Тима победить самого себя и стать настоящим мужчиной?

Качество: BDRip-AVC
Формат: MKV
Видео кодек: H.264
Аудио кодек: AC3
Видео: 1040x442 (2,35:1), 23,976 fps, 1975 Кbps, 0.179 bit/pixel
Аудио#1: 48 kHz, AC3 Dolby Digital, 3/2 (L,C,R,l,r) + LFE ch, 448.00 kbps | RUS
Аудио#2: 48 kHz, AC3 Dolby Digital, 3/2 (L,C,R,l,r) + LFE ch, 448.00 kbps | UKR
Аудио#3: 48 kHz, AC3 Dolby Digital, 3/2 (L,C,R,l,r) + LFE ch, 448.00 kbps | ITA

Релиз группы:
Автор рипа: potroks





General
Unique ID : 214042985757072553032831417530632978338 (0xA1072DF8022E40A2A6D528FD31893FA2)
Complete name : Gladiatory.Rima.2012.TRIPLE.BDRip.x264.-HELLYWOOD.mkv
Format : Matroska
Format version : Version 4 / Version 2
File size : 2.18 GiB
Duration : 1h 34mn
Overall bit rate : 3 320 Kbps
Movie name : HELLYWOOD - rip by potroks
Encoded date : UTC 2013-09-11 17:18:35
Writing application : mkvmerge v5.9.0 ('On The Loose') built on Dec 15 2012 16:39:58
Writing library : libebml v1.3.0 + libmatroska v1.4.0

Video
ID : 1
Format : AVC
Format/Info : Advanced Video Codec
Format profile : [email protected]
Format settings, CABAC : Yes
Format settings, ReFrames : 10 frames
Codec ID : V_MPEG4/ISO/AVC
Duration : 1h 34mn
Bit rate : 1 975 Kbps
Width : 1 040 pixels
Height : 442 pixels
Display aspect ratio : 2.35:1
Frame rate mode : Constant
Frame rate : 23.976 fps
Color space : YUV
Chroma subsampling : 4:2:0
Bit depth : 8 bits
Scan type : Progressive
Bits/(Pixel*Frame) : 0.179
Stream size : 1.25 GiB (58%)
Title : Gladiatori di Roma
Writing library : x264 core 130 r2273 b3065e6
Encoding settings : cabac=1 / ref=10 / deblock=1:-1:-1 / analyse=0x3:0x133 / me=umh / subme=11 / psy=1 / psy_rd=1.15:0.05 / mixed_ref=1 / me_range=32 / chroma_me=1 / trellis=2 / 8x8dct=1 / cqm=0 / deadzone=21,11 / fast_pskip=0 / chroma_qp_offset=-3 / threads=8 / lookahead_threads=2 / sliced_threads=0 / nr=0 / decimate=0 / interlaced=0 / bluray_compat=0 / constrained_intra=0 / bframes=11 / b_pyramid=2 / b_adapt=2 / b_bias=0 / direct=3 / weightb=1 / open_gop=0 / weightp=2 / keyint=250 / keyint_min=23 / scenecut=40 / intra_refresh=0 / rc_lookahead=60 / rc=2pass / mbtree=0 / bitrate=1975 / ratetol=1.0 / qcomp=0.70 / qpmin=0 / qpmax=69 / qpstep=4 / cplxblur=20.0 / qblur=0.5 / vbv_maxrate=20000 / vbv_bufsize=20000 / nal_hrd=none / ip_ratio=1.35 / pb_ratio=1.25 / aq=1:0.70
Language : Italian
Default : Yes
Forced : No

Audio #1
ID : 2
Format : AC-3
Format/Info : Audio Coding 3
Mode extension : CM (complete main)
Format settings, Endianness : Big
Codec ID : A_AC3
Duration : 1h 34mn
Bit rate mode : Constant
Bit rate : 448 Kbps
Channel count : 6 channels
Channel positions : Front: L C R, Side: L R, LFE
Sampling rate : 48.0 KHz
Bit depth : 16 bits
Compression mode : Lossy
Stream size : 301 MiB (13%)
Title : Dub | DD 5.1 @ 448 kbps
Language : Russian
Default : Yes
Forced : Yes

Audio #2
ID : 3
Format : AC-3
Format/Info : Audio Coding 3
Mode extension : CM (complete main)
Format settings, Endianness : Big
Codec ID : A_AC3
Duration : 1h 34mn
Bit rate mode : Constant
Bit rate : 448 Kbps
Channel count : 6 channels
Channel positions : Front: L C R, Side: L R, LFE
Sampling rate : 48.0 KHz
Bit depth : 16 bits
Compression mode : Lossy
Stream size : 301 MiB (13%)
Title : Dub | DD 5.1 @ 448 kbps
Language : Ukrainian
Default : No
Forced : No

Audio #3
ID : 4
Format : AC-3
Format/Info : Audio Coding 3
Mode extension : CM (complete main)
Format settings, Endianness : Big
Codec ID : A_AC3
Duration : 1h 34mn
Bit rate mode : Constant
Bit rate : 448 Kbps
Channel count : 6 channels
Channel positions : Front: L C R, Side: L R, LFE
Sampling rate : 48.0 KHz
Bit depth : 16 bits
Compression mode : Lossy
Stream size : 301 MiB (13%)
Title : Original | DD 5.1 @ 448 kbps
Language : Italian
Default : No
Forced : No

pb.wtf



Скачать Гладиаторы Рима через торрент http://uploadpic.ru/img/2013-09/13/sfp9mtpc760tkgkpbzke2ehas.jpg Скачать, смотреть онлайн Гладиаторы Рима бесплантно в хорошем качестве Описание: Страшное извержение вулкана разрушает город Помпеи, и маленький Тим остается сиротой. Его спаситель, генерал Кирон, отправляет ... 8.4 10 11
Info! Золотая раздача, скачанное не засчитывается.
Торрент: Зарегистрирован [2013-09-13 17:08] · скачан: 560 раз
Статус: √ проверено
Размер: 2.18 GB
Как cкачать? Как скачать Гладиаторы Рима через торрент | UTorrent

% Раздел Тема Автор DL S | L
Иностранные мультфильмы [ 1.37 GB ] Гладиаторы Рима / Gladiatori di Roma [2012 мультфильм DVDRip DUB лицензия] nn99nn Скачать
1 | 0
Иностранные мультфильмы [ 256 MB ] Гладиаторы Рима / Gladiatori di Roma [2012 мультфильм DVDRip] byblackmexx Скачать
1 | 0
Иностранные мультфильмы [ 1.46 GB ] Гладиаторы Рима / Gladiatori di Roma [2012 мультфильм BDRip DUB лицензия] yuivan Скачать
1 | 0
3D Мультфильмы [ 5.94 GB ] Гладиаторы Рима в 3D / Gladiatori di Roma in 3D [2012 мультфильм BDRip 1080p DUB + Оригинал] Anaglyph slaventi-69 Скачать
1 | 0
Зарубежные Мультфильмы (DVD) [ 6.24 GB ] Гладиаторы Рима / Gladiatori di Roma [2012 мультфильм DVD9] R5 voovaz Скачать
1 | 0
3D Мультфильмы [ 8.92 GB ] Гладиаторы Рима в 3Д / Gladiatori di Roma 3D [2012 Мультфильм BDrip 1080p]Full OverUnder / Вертикальная стереопара serega768 Скачать
1 | 0

28-11-2019 20:33  

Отключить вcю реклaмy на сайте

    Дорогой пользователь! Огромная просьба, поблагодарите релизера, оцените раздачу и оставьте свои комментарий, если Вы скачали Гладиаторы Рима через торрент бесплатно!
    Комментировать посты могут только пользователи прошедшие не сложную регистрацию
    Показать сообщения:    

    Гладиаторы Рима через торрент
    Скачать бесплатно Гладиаторы Рима
    Гладиаторы Рима скачать торрент
    Гладиаторы Рима смотреть онлайн
    Cкачать фильм Гладиаторы Рима бесплатно
    Гладиаторы Рима скачать торрент в хорошем качестве
    Гладиаторы Рима смотреть онлайн бесплатно в хорошем качестве


    Вы не можете начинать темы
    Вы не можете отвечать на сообщения
    Вы не можете редактировать свои сообщения
    Вы не можете удалять свои сообщения
    Вы не можете голосовать в опросах
    Вы не можете прикреплять файлы к сообщениям
    Вы можете скачивать файлы