2 сезон

iTunes

MVO

1

2 сезон

iTunes

iTunes

1 сезон

RePack

30

Новинка

ВАЖНО

ИГРА 18+

pack

RePack

MK11
pack

Легкие деньги

RePack

jed

RePack

fifa19

RePack

RDR2

RePack

NEED FOR SPEED™ PAYBACK

4 сезон

9 сезон

Бесстыжие 9 сезон

Все сериалы

все сериалы на PB.wtf

RePack

FAR CRY 5

Anonymous, добрый вечер, мы не успеваем собрать деньги на оплату серверов за декабрь и январь, помогите нам пожалуйста в это трудное время. В качестве благодарности мы отключим Вам всю рекламу на сайте (укажите свой ник в строку Ваше имя)!

×
  
Magnet ссылка

Влacть убеждений / The Power of Few (Леоне Маркуччи / Leone Marucci) [2013, США, боевик, триллер, драма, HDRip, Профессиональный (многоголосый, закадровый) [лицензия] pb.wtf

Влacть убеждений через торрент pb.wtf

Размер: 1.37 GB | Добавлен: 7 лет 4 мес. назад | Торрент скачан:1185 раз
Скачать  

14-09-2013 09:01 Влacть убеждений Скачать торрент  

Влacть убеждений / The Power of Few

«Всё взаимосвязано!»

  • Год выпуска:2013
  • Страна:США
  • Жанр:боевик, триллер, драма, криминал, детектив
  • Продолжительность: 01:35:57
  • Перевод:Профессиональный (многоголосый, закадровый) [лицензия]

  • Субтитры: Нет
    • Режиссер:Леоне Маркуччи / Leone Marucci
    • Сценарий: Леоне Маркуччи / Leone Marucci
    • Продюсер: Джей Темз / Jay Thames, Фред д’Амико / Fred D'Amico, Джимми Холкомб / Jimmy Holcomb, К’Орианка Килчер / Q'Orianka Kilcher, Рой Скотт МакФарлэнд / Roy Scott MacFarland

  • В ролях:Кристофер Уокен (Doke), Девон Джирхарт (Cory), Кристиан Слэйтер (Clyde), Энтони Андерсон (Junkshow), Фишер Эшворт (Cory's Baby Brother), К’Орианка Килчер (Alexa), Луиз Линтон (Cory's Mother), Ларри Кинг (играет самого себя), Доминик «Таз» Александр (Darnell), Никки Уилан (Marti), Мун Бладгуд (Mala), Стиггиди Стив (Eddie)
    • Описание:
      Через двадцать минут жизнь в маленьком городке в Новом Орлеане круто изменится. Как? Вариантов - бесчисленное множество, ведь за эти 20 минут может произойти бессчётное количество событий. Полисмены, шпионы, бродяги, криминальные авторитеты, религиозные лидеры, городские зеваки... - каждый может совершить нечто, что развернёт течение истории в другом направлении. Ведь все мы неразрывно связаны друг с другом, даже если не подозреваем об этом! Выбор самого маленького человека может повлиять на самые большие события в мире...

  • Рейтинг
    kinopoisk.ru: 5.732 (302)
    imdb.com: 4.90 (2032)
    MPAA: R - Лицам до 17 лет обязательно присутствие взрослого
    • Качество:HDRip
    • Формат:AVI
    • Видео кодек: XviD
    • Аудио кодек:AC3
    • Видео: XviD, 720x400 (16:9), 1645 kbps, 23,976 fps, 0,238 bpp
    • Аудио: AC3 / 5.1 / 48 kHz / 384 kbps / 16 bit


    General
    Complete name : D:ТорентыVlast.Ubejdenij.2013.P.HDRip.1400MB.avi
    Format : AVI
    Format/Info : Audio Video Interleave
    File size : 1.37 GiB
    Duration : 1h 35mn
    Overall bit rate : 2 039 Kbps
    Writing application : VirtualDubMod 1.5.10.2 (build 2540/release)
    Writing library : VirtualDubMod build 2540/release

    Video
    ID : 0
    Format : MPEG-4 Visual
    Format profile : Advanced Simple@L5
    Format settings, BVOP : 2
    Format settings, QPel : No
    Format settings, GMC : No warppoints
    Format settings, Matrix : Default (MPEG)
    Codec ID : XVID
    Codec ID/Hint : XviD
    Duration : 1h 35mn
    Bit rate : 1 646 Kbps
    Width : 720 pixels
    Height : 400 pixels
    Display aspect ratio : 16:9
    Frame rate : 23.976 fps
    Color space : YUV
    Chroma subsampling : 4:2:0
    Bit depth : 8 bits
    Scan type : Progressive
    Compression mode : Lossy
    Bits/(Pixel*Frame) : 0.238
    Stream size : 1.10 GiB (81%)
    Writing library : XviD 1.2.1 (UTC 2008-12-04)

    Audio
    ID : 1
    Format : AC-3
    Format/Info : Audio Coding 3
    Mode extension : CM (complete main)
    Codec ID : 2000
    Duration : 1h 35mn
    Bit rate mode : Constant
    Bit rate : 384 Kbps
    Channel(s) : 6 channels
    Channel positions : Front: L C R, Side: L R, LFE
    Sampling rate : 48.0 KHz
    Bit depth : 16 bits
    Compression mode : Lossy
    Stream size : 264 MiB (19%)
    Alignment : Split accross interleaves
    Interleave, duration : 42 ms (1.00 video frame)
    Interleave, preload duration : 500 ms


    © Оформление by Vetalpb.wtf



  • Скачать Влacть убеждений через торрент http://i5.imageban.ru/out/2013/09/14/5b22c975a0895747be77c94e1e14a7c7.jpg Скачать фильм Влacть убеждений через торрент бесплантно в хорошем качестве Описание:Через двадцать минут жизнь в маленьком городке в Новом Орлеане круто изменится. Как? Вариантов - бесчисленное множество, ведь за ... 9.1 10 34
    Info! Золотая раздача, скачанное не засчитывается.
    Торрент: Зарегистрирован [2013-09-14 09:01] · скачан: 1 185 раз
    Статус: √ проверено
    Размер: 1.37 GB
    Как cкачать? Как скачать Влacть убеждений через торрент | UTorrent

    28-11-2019 20:33  

    Отключить всю рекламу на сайте


    14-09-2013 19:51 Влacть убеждений Скачать торрент  

    119 качнуло, и отписаться не кому?pb.wtf



    15-09-2013 02:00 Влacть убеждений Скачать торрент  

    Буду 120м, отписалсяpb.wtf



    28-10-2013 18:53 Влacть убеждений Скачать торрент  

    смотрите!!!......мне...pb.wtf



      Дорогой пользователь! Огромная просьба, поблагодарите релизера, оцените раздачу и оставьте свои комментарий, если Вы скачали Влacть убеждений через торрент бесплатно! Внесите свою лепту в развитие PiratBit!
      Комментировать посты могут только пользователи прошедшие не сложную регистрацию
      Показать сообщения:    

      Влacть убеждений через торрент
      Скачать бесплатно Влacть убеждений
      Влacть убеждений скачать торрент
      Влacть убеждений смотреть онлайн
      Cкачать фильм Влacть убеждений бесплатно
      Влacть убеждений скачать торрент в хорошем качестве
      Влacть убеждений смотреть онлайн бесплатно в хорошем качестве


      Вы не можете начинать темы
      Вы не можете отвечать на сообщения
      Вы не можете редактировать свои сообщения
      Вы не можете удалять свои сообщения
      Вы не можете голосовать в опросах
      Вы не можете прикреплять файлы к сообщениям
      Вы можете скачивать файлы