Ссылка на приватное зеркало всего за 1$. Внимание количество ограничено!!!

iTunes

1+1

iTunes

мы

WEB-DL

1

iTunes

Чернобыль

iTunes

Ральф против интернета

Лицензия

ПШазам

Лицензия

Оно 2

Лицензия

30
pack

Вам бонус

ВАЖНО

!!Акция!!

Alien_RageХит недели

RePack

Resident Evil 21

ИГРА 18+

pack

RePack

jed

!!Акция!!

Alien_Rage

RePack

fifa19

RePack

Assassins Creed: Odyssey

RePack

NEED FOR SPEED™ PAYBACK

3 сезон

9 сезон

Бесстыжие 9 сезон

Все сериалы

все сериалы на PB.wtf

RePack

FAR CRY 5
Ребята, катастрофически не хватает 1900р. для оплаты серверов за Октябрь (всвязи с блокировками трафик упал в 3 раза), 1-2р., выручайте.
  

Мад / Mud (Джефф Николс / Jeff Nichols) [2012, США, драма, криминал, HDRip, Авторский (Сербин Юрий) pb.wtf

Мад через торрент pb.wtf

Размер: 1.37 GB | Добавлен: 6 лет 2 мес. назад | Торрент скачан:219 раз
Скачать  

14-09-2013 09:49 Мад Скачать торрент  

Мад / Mud


  • Год выпуска:2012
  • Страна:США
  • Жанр:драма, криминал

  • Продолжительность: 02:10:40
  • Перевод:Авторский (одноголосый) (Сербин Юрий)

  • Субтитры: Нет
    • Режиссер:Джефф Николс / Jeff Nichols
    • Сценарий: Джефф Николс / Jeff Nichols
    • Продюсер: Лиза Мария Фальконе / Lisa Maria Falcone, Сара Грин / Sarah Green, Аарон Райдер / Aaron Ryder, Глен Баснер / Glen Basner, Майкл Флинн / Michael Flynn

  • В ролях:Мэттью МакКонахи (Mud), Тай Шеридан (Ellis), Сэм Шепард (Tom Blankenship), Риз Уизерспун (Juniper), Джейкоб Лофленд (Neckbone), Рэй МакКиннон (Senior), Сара Полсон (Mary Lee), Майкл Шеннон (Galen), Джо Дон Бейкер (King), Пол Спаркс (Carver), Бонни Стардивант (May Pearl), Стюарт Грир (Miller)
    • Описание:
      Это история о двух мальчиках 14 лет, Эллисе и Некбоуне, которые случайно встречают во время одной из своих прогулок человека, прячущегося на острове посреди Миссисипи. Его зовут Мад: выбитый зуб, татуировка змеи на руке, пистолет и «счастливая» рубашка. А еще Мад верит в любовь - это как раз то, что нужно Эллису, чтобы забыть о напряженной обстановке в семье. Вскоре они начинают вместе чинить лодку, на которой Мад планирует покинуть остров. Однако мальчики не в состоянии понять, где правда, а где ложь в словах Мада. Действительно ли он убил человека и теперь его преследует правосудие и охотники за вознаграждением? И кто эта таинственная девушка, прибывшая в их маленький городок в штате Арканзас?

  • Рейтинг
    kinopoisk.ru: 7.299 (1492)
    imdb.com: 7.60 (33 908)
    MPAA: PG-13 - Детям до 13 лет просмотр не желателен
    • Качество:HDRip
    • Формат:AVI
    • Видео кодек: XviD
    • Аудио кодек:AC3
    • Видео: XviD, 720x304 (2.35:1), 1039 kbps, 23,976 fps, 0,198 bpp
    • Аудио: AC3 / 5.1 / 48 kHz / 448 kbps / 16 bit


    General
    Complete name : D:ТорентыMad.2012.P.HDRip.1400Mb.avi
    Format : AVI
    Format/Info : Audio Video Interleave
    File size : 1.37 GiB
    Duration : 2h 10mn
    Overall bit rate : 1 497 Kbps
    Writing application : VirtualDubMod 1.5.10.2 (build 2540/release)
    Writing library : VirtualDubMod build 2540/release

    Video
    ID : 0
    Format : MPEG-4 Visual
    Format profile : Advanced Simple@L5
    Format settings, BVOP : 2
    Format settings, QPel : No
    Format settings, GMC : No warppoints
    Format settings, Matrix : Default (H.263)
    Codec ID : XVID
    Codec ID/Hint : XviD
    Duration : 2h 10mn
    Bit rate : 1 040 Kbps
    Width : 720 pixels
    Height : 304 pixels
    Display aspect ratio : 2.35:1
    Frame rate : 23.976 fps
    Color space : YUV
    Chroma subsampling : 4:2:0
    Bit depth : 8 bits
    Scan type : Progressive
    Compression mode : Lossy
    Bits/(Pixel*Frame) : 0.198
    Stream size : 972 MiB (69%)
    Writing library : XviD 1.2.1 (UTC 2008-12-04)

    Audio
    ID : 1
    Format : AC-3
    Format/Info : Audio Coding 3
    Mode extension : CM (complete main)
    Codec ID : 2000
    Duration : 2h 10mn
    Bit rate mode : Constant
    Bit rate : 448 Kbps
    Channel(s) : 6 channels
    Channel positions : Front: L C R, Side: L R, LFE
    Sampling rate : 48.0 KHz
    Bit depth : 16 bits
    Compression mode : Lossy
    Stream size : 419 MiB (30%)
    Alignment : Split accross interleaves
    Interleave, duration : 42 ms (1.00 video frame)
    Interleave, preload duration : 500 ms


    © Оформление by Vetalpb.wtf



  • Скачать Мад через торрент http://i5.imageban.ru/out/2013/09/14/ffac0e8569a6ee37fe9be38f086166b5.jpg Скачать фильм Мад через торрент бесплантно в хорошем качестве Описание:Это история о двух мальчиках 14 лет, Эллисе и Некбоуне, которые случайно встречают во время одной из своих прогулок человека, ... 9.4 10 13
    Info! Золотая раздача, скачанное не засчитывается.
    Торрент: Зарегистрирован [2013-09-14 09:49] · скачан: 219 раз
    Статус: √ проверено
    Размер: 1.37 GB
    Как cкачать? Как скачать Мад через торрент | qTorrent

    % Раздел Тема Автор DL S | L
    T Фильмы (мультфильмы) cо спонсором показа (Новинки AVI/MKV) [ 2.1 GB ] Ферма «Мадбаунд» / Mudbound [2017 военный WEBRip 720p] MVO [Jaskier] bober100 Скачать
    1 | 0
    T Фильмы (мультфильмы) cо спонсором показа (Новинки AVI/MKV) [ 3.29 GB ] Ферма «Мадбаунд» / Mudbound [2017 военный WEBRip 1080p] MVO [Jaskier] bober100 Скачать
    1 | 0
    T Фильмы (мультфильмы) cо спонсором показа (Новинки AVI/MKV) [ 1.45 GB ] Ферма «Мадбаунд» / Mudbound [2017 военный WEBRip] MVO [Jaskier] bober100 Скачать
    1 | 0
    Фильмы с авторской озвучкой [ 7.95 GB ] Мад / Mud [2012 BDRip 1080p Авторский _denis_100 Скачать
    1 | 0
    Порно фильмы с сюжетом [ 1.92 GB ] Безумный Цирк Мадисона / Madison's Mad Mad Circus [2013 Feature. DVDRip Оригинал] Pir@tya2010 Скачать
    1 | 0
    Арт-хаус и авторское кино [ 4.82 GB ] Мад / Mud [ 2012 BDRip 720p ] MVO Ворон Скачать
    1 | 0

    28-11-2019 20:33  

    Отключить всю рекламу на сайте

      Дорогой пользователь! Огромная просьба, поблагодарите релизера, оцените раздачу и оставьте свои комментарий, если Вы скачали Мад через торрент бесплатно! Внесите свою лепту в развитие PiratBit!
      Комментировать посты могут только пользователи прошедшие не сложную регистрацию
      Показать сообщения:    

      Мад через торрент
      Скачать бесплатно Мад
      Мад скачать торрент
      Мад смотреть онлайн
      Cкачать фильм Мад бесплатно
      Мад скачать торрент в хорошем качестве
      Мад смотреть онлайн бесплатно в хорошем качестве


      Вы не можете начинать темы
      Вы не можете отвечать на сообщения
      Вы не можете редактировать свои сообщения
      Вы не можете удалять свои сообщения
      Вы не можете голосовать в опросах
      Вы не можете прикреплять файлы к сообщениям
      Вы можете скачивать файлы