Ссылка на приватное зеркало нашего сайта всего за 1$. Внимание количество ограничено!!!

2 сезон

iTunes

1 сезон

1

2 сезон

2 сезон

iTunes

1 сезон

RePack

30

Ultimate

ВАЖНО

ИГРА 18+

pack

RePack

MK11
pack

Забери бонус

RePack

jed

!!Акция!!

Alien_Rage

RePack

fifa19

RePack

Assassins Creed: Odyssey

RePack

NEED FOR SPEED™ PAYBACK

4 сезон

9 сезон

Бесстыжие 9 сезон

Все сериалы

все сериалы на PB.wtf

RePack

FAR CRY 5
  

Айронсайд / Ironside / Сезон: 1 / Серии 01 (???) (Питер Хортон) [2013, Драма, WEB-DLRip] [MVO] pb.wtf

Айронсайд через торрент pb.wtf

Размер: 700 MB | Добавлен: 7 лет 2 мес. назад | Торрент скачан:24 раза
Скачать  

14-09-2013 11:54 Айронсайд Скачать торрент  

Айронсайд / Ironside
Год выпуска: 2013
Жанр: Драма
Выпущено: США, Davis Entertainment, NBC Universal Television, Yellow Brick Road
Продолжительность: 00:42:43
Перевод: Любительское (многоголосое) [Ирина Грачева, Адам Шухарт, Алёна Соколова, Максим Максимов]

Режиссер: Питер Хортон

В ролях: Блэр Андервуд, Брент Секстон, Пабло Шрайбер, Спенсер Грэммер, Нил Эндрю Бледсо, Кеннет Чои, Шеви Берковиц Гутьеррез, Илья Константин, Патрик Брана, Эдди Р. Браун IIIОписание:В Нью-Йоркской полиции нет никого жестче, чем детектив Роберт Айронсайд. Он бесстрашный полицейский, который не остановится, пока виновные не будут привлечены к ответственности. Он и его команда специалистов сделают все возможное, чтобы распутать самые сложные и громкие преступления даже если придется преступить закон Качество: WEB-DLRip
Видео кодек: XviD
Аудио кодек: AC3
Видео: 720x400 (1.80:1), 23.976 fps, XviD build 50 ~2090 kbps avg, 0.30 bit/pixel
Аудио: 48 kHz, AC3 Dolby Digital, 2/0 (L,R) ch, ~192.00 kbps avg
General
Complete name : E:INTERNETIronside.2013.L.S01E01.WEB-DLRipIronside.2013.L.S01E01.WEB-DLRip.avi
Format : AVI
Format/Info : Audio Video Interleave
File size : 700 MiB
Duration : 42mn 41s
Overall bit rate : 2 292 Kbps
Writing application : VirtualDubMod 1.5.10.2 (build 2542/release)
Writing library : VirtualDubMod build 2542/release

Video
ID : 0
Format : MPEG-4 Visual
Format profile : Advanced Simple@L5
Format settings, BVOP : Yes
Format settings, QPel : No
Format settings, GMC : No warppoints
Format settings, Matrix : Default (H.263)
Codec ID : XVID
Codec ID/Hint : XviD
Duration : 42mn 41s
Bit rate : 2 091 Kbps
Width : 720 pixels
Height : 400 pixels
Display aspect ratio : 16:9
Frame rate : 23.976 fps
Color space : YUV
Chroma subsampling : 4:2:0
Bit depth : 8 bits
Scan type : Progressive
Bits/(Pixel*Frame) : 0.303
Stream size : 638 MiB (91%)
Writing library : XviD 1.2.1 (UTC 2008-12-04)

Audio
ID : 1
Format : AC-3
Format/Info : Audio Coding 3
Mode extension : CM (complete main)
Codec ID : 2000
Duration : 42mn 41s
Bit rate mode : Constant
Bit rate : 192 Kbps
Channel(s) : 2 channels
Channel positions : Front: L R
Sampling rate : 48.0 KHz
Bit depth : 16 bits
Stream size : 58.6 MiB (8%)
Alignment : Split accross interleaves
Interleave, duration : 42 ms (1.00 video frame)
Interleave, preload duration : 500 ms
Внимание! Раздача ведётся путём добавления новых серий; при каждом добавлении создётся новый торрент. Чтобы начать докачку новой серии, пользователям необходимо сделать следующее:Остановить скачивание.
Удалить старый торрент у себя из клиента (старые серии удалять не надо).
Скачать новый торрент и запустить его у себя в клиенте вместо старого, при этом указать клиенту путь в старую папку куда и должно происходить скачивание новых серий.Ваш клиент при этом должен произвести хеширование (проверку) старой папки (если не производит сам - помогите ему сделать это), и будет докачивать только те серии которых у вас ещё нет. Старые серии при этом не удаляются, а продолжают раздаваться!
Eсли вы уже удалили старые серии, то предотвратить повторную закачку старых серий можно, отжав галочку в соответсвующих местах при запуске нового торрента. По возможности, желательно не удалять старые серии как можно дольше чтобы релизёр не столько продолжал раздавать старые серии, а смог сконцентрироваться на новых.
pb.wtf



Скачать Айронсайд через торрент http://i079.radikal.ru/1309/b5/05516db65716.jpg Скачать фильм Айронсайд через торрент бесплантно в хорошем качестве Описание:В Нью-Йоркской полиции нет никого жестче, чем детектив Роберт Айронсайд. Он бесстрашный полицейский, который не остановится, пока ... 7.7 10 3
Info! Золотая раздача, скачанное не засчитывается.
Торрент: Зарегистрирован [2013-09-14 11:54] · скачан: 24 раз
Статус: √ проверено
Размер: 700 MB
Как cкачать? Как скачать Айронсайд через торрент | qTorrent



Последний раз редактировалось: killermax2013 (2013-09-14 13:02), всего редактировалось 1 раз

28-11-2019 20:33  

Отключить всю рекламу на сайте

14-09-2013 12:38 Айронсайд Скачать торрент  

killermax2013
http://pb.wtf/topic/58138/

Цитата:

Если Вы начали раздавать сериал с первой серии и собираетесь добавлять все последующие серии в эту папку, то должны обязательно указать об этом в самой раздаче.

pb.wtf



14-09-2013 13:08 Айронсайд Скачать торрент  

Vetаl писал(а):

killermax2013
http://pb.wtf/topic/58138/

Цитата:

Если Вы начали раздавать сериал с первой серии и собираетесь добавлять все последующие серии в эту папку, то должны обязательно указать об этом в самой раздаче.


добавил в описаниеpb.wtf



    Дорогой пользователь! Огромная просьба, поблагодарите релизера, оцените раздачу и оставьте свои комментарий, если Вы скачали Айронсайд через торрент бесплатно! Внесите свою лепту в развитие PiratBit!
    Комментировать посты могут только пользователи прошедшие не сложную регистрацию
    Показать сообщения:    

    Айронсайд через торрент
    Скачать бесплатно Айронсайд
    Айронсайд скачать торрент
    Айронсайд смотреть онлайн
    Cкачать фильм Айронсайд бесплатно
    Айронсайд скачать торрент в хорошем качестве
    Айронсайд смотреть онлайн бесплатно в хорошем качестве


    Вы не можете начинать темы
    Вы не можете отвечать на сообщения
    Вы не можете редактировать свои сообщения
    Вы не можете удалять свои сообщения
    Вы не можете голосовать в опросах
    Вы не можете прикреплять файлы к сообщениям
    Вы можете скачивать файлы