1 сезон

1 сезон

iTunes

1

КиноПоиск HD

Кинопоиск HD

iTunes

13

1 сезон

RePack

30

Новинка

ВАЖНО

ИГРА 18+

pack

RePack

MK11
pack

Легкие деньги

RePack

jed

RePack

fifa19

RePack

RDR2

RePack

NEED FOR SPEED™ PAYBACK

4 сезон

9 сезон

Бесстыжие 9 сезон

Все сериалы

все сериалы на PB.wtf

RePack

FAR CRY 5
  
Magnet ссылка

Держись до конца / Going the Distance (Марк Гриффитс / Mark Griffiths) [2004, Канада, комедия, BDRip, Дубляж+Оригинал pb.wtf

Держись до конца через торрент pb.wtf

Размер: 1.45 GB | Добавлен: 7 лет 6 мес. назад | Торрент скачан:112 раз
Скачать  

14-09-2013 12:34 Держись до конца Скачать торрент  

Держись до конца / Going the Distance

«They came. They saw. They came.»

  • Год выпуска:2004
  • Страна:Канада
  • Жанр:комедия

  • Продолжительность: 01:33:28
  • Перевод:Профессиональный (полное дублирование)

  • Субтитры: русские, английские (SDH)(отдельно)
    • Режиссер:Марк Гриффитс / Mark Griffiths
    • Сценарий: Келли Сенекал / Kelly Senecal, Эрик Гудман / Eric Goodman
    • Продюсер: Дайан Боэме / Diane Boehme, Стефен Хеджис / Stephen Hegyes, Шон Уильямсон / Shawn Williamson, Джонатан Шор / Jonathan Shore, Брэд Ван Аррагон / Brad Van Arragon

  • В ролях:Кристофер Жако (Nick), Джоэнн Келли (Sasha), Шон Робертс (Tyler), Мэйко Нгуйен (Jill), Райан Бельвиль (Dime), Кэтрин Уинник (Trish), Аугуст Шелленберг (Emile), Мэтт Фрюэр (Farmer Joseph), Джеки Барроуз (Mother Libby), Эндрю Эйрли (Jerry), Линда Бойд (Toni), Джей Бразо (Store Clerk)
    • Описание:
      Что делать, если ваша любимая девушка уехала в другой город, получив работу у воротилы шоу-бизнеса? Особенно зная, что он дамский угодник, каких еще поискать. Может махнуть на всё рукой и развлечься на стороне?
      Благо родители сами подсовывают тебе девушку по вызову, стараясь своей заботой скрасить одиночество сына, а друзья твердят, что надо, мол, выбросить из головы глупости и отрываться себе, пока есть возможность. Или поехать следом за любимой и сделать ей предложение? Ник решает вернуть свою любовь во что б это ни стало и отправляется в путь в компании своих друзей-авантюристов. Впереди у путешественников не одна миля головокружительных приключений и забавных неожиданностей.

  • Рейтинг
    kinopoisk.ru: 6.647 (3319)
    imdb.com: 5.30 (2652)
    MPAA: R - Лицам до 17 лет обязательно присутствие взрослого

      Автор рипа: yaroslaigor
    • Качество:BDRip
    • Формат:AVI
    • Видео кодек: XviD
    • Аудио кодек:AC3
    • Видео: XviD, 704x400 (16:9), 1830 kbps, 23,976 fps, 0,271 bpp
    • Аудио: AC3 / 5.1 / 48 kHz / 384 kbps / 16 bit
    • Аудио #2: 48 kHz, AC3 Dolby Digital, 3/2 (L,C,R,l,r) + LFE ch, ~384 kbps avg Оригинал (английский)(отдельно)


    General
    Complete name : D:ТорентыDerzhis.do.konca.2004.RUS.BDRip.XviD.AC3.-HQCLUB.avi
    Format : AVI
    Format/Info : Audio Video Interleave
    File size : 1.45 GiB
    Duration : 1h 33mn
    Overall bit rate : 2 224 Kbps
    Movie name : Держись до конца / Going the Distance (2004) BDRip
    Director : yaroslaigor
    Genre : комедия
    Writing application : VirtualDubMod 1.5.10.2 (build 2542/release)

    Comment : 11.09.2013

    Video
    ID : 0
    Format : MPEG-4 Visual
    Format profile : Advanced Simple@L5
    Format settings, BVOP : 1
    Format settings, QPel : No
    Format settings, GMC : No warppoints
    Format settings, Matrix : Custom
    Codec ID : XVID
    Codec ID/Hint : XviD
    Duration : 1h 33mn
    Bit rate : 1 831 Kbps
    Width : 704 pixels
    Height : 400 pixels
    Display aspect ratio : 16:9
    Frame rate : 23.976 fps
    Color space : YUV
    Chroma subsampling : 4:2:0
    Bit depth : 8 bits
    Scan type : Progressive
    Compression mode : Lossy
    Bits/(Pixel*Frame) : 0.271
    Stream size : 1.20 GiB (82%)
    Writing library : XviD 65

    Audio
    ID : 1
    Format : AC-3
    Format/Info : Audio Coding 3
    Mode extension : CM (complete main)
    Codec ID : 2000
    Duration : 1h 33mn
    Bit rate mode : Constant
    Bit rate : 384 Kbps
    Channel(s) : 6 channels
    Channel positions : Front: L C R, Side: L R, LFE
    Sampling rate : 48.0 KHz
    Bit depth : 16 bits
    Compression mode : Lossy
    Stream size : 257 MiB (17%)
    Alignment : Split accross interleaves
    Interleave, duration : 42 ms (1.00 video frame)
    Interleave, preload duration : 500 ms


    © Оформление by Vetalpb.wtf



  • Скачать Держись до конца через торрент http://i1.imageban.ru/out/2013/09/14/fa6e827665f80ecb1964c048a49b3cdb.jpg Скачать фильм Держись до конца через торрент бесплантно в хорошем качестве Описание:Что делать, если ваша любимая девушка уехала в другой город, получив работу у воротилы шоу-бизнеса? Особенно зная, что он дамский ... 8.7 10 3
    Info! Золотая раздача, скачанное не засчитывается.
    Торрент: Зарегистрирован [2013-09-14 12:34] · скачан: 112 раз
    Статус: √ проверено
    Размер: 1.45 GB
    Как cкачать? Как скачать Держись до конца через торрент | UTorrent

    28-11-2019 20:33  

    Отключить всю рекламу на сайте

      Дорогой пользователь! Огромная просьба, поблагодарите релизера, оцените раздачу и оставьте свои комментарий, если Вы скачали Держись до конца через торрент бесплатно! Внесите свою лепту в развитие PiratBit!
      Комментировать посты могут только пользователи прошедшие не сложную регистрацию
      Показать сообщения:    

      Держись до конца через торрент
      Скачать бесплатно Держись до конца
      Держись до конца скачать торрент
      Держись до конца смотреть онлайн
      Cкачать фильм Держись до конца бесплатно
      Держись до конца скачать торрент в хорошем качестве
      Держись до конца смотреть онлайн бесплатно в хорошем качестве


      Вы не можете начинать темы
      Вы не можете отвечать на сообщения
      Вы не можете редактировать свои сообщения
      Вы не можете удалять свои сообщения
      Вы не можете голосовать в опросах
      Вы не можете прикреплять файлы к сообщениям
      Вы можете скачивать файлы