2 сезон

iTunes

MVO

1

2 сезон

iTunes

iTunes

1 сезон

RePack

30

Новинка

ВАЖНО

ИГРА 18+

pack

RePack

MK11
pack

Легкие деньги

RePack

jed

RePack

fifa19

RePack

RDR2

RePack

NEED FOR SPEED™ PAYBACK

4 сезон

9 сезон

Бесстыжие 9 сезон

Все сериалы

все сериалы на PB.wtf

RePack

FAR CRY 5

Anonymous, доброе утро, мы не успеваем собрать деньги на оплату серверов за декабрь и январь, помогите нам пожалуйста в это трудное время. В качестве благодарности мы отключим Вам всю рекламу на сайте (укажите свой ник в строку Ваше имя)!

×
  
Magnet ссылка

Влacть убеждений / The Power of Few (Леоне Маркуччи / Leone Marucci) [2013 г., Боевик, триллер, драма, криминал, детектив, BDRip-AVC, Профессиональный многоголосый, Лицензия] pb.wtf

Влacть убеждений через торрент pb.wtf

Размер: 2.14 GB | Добавлен: 7 лет 4 мес. назад | Торрент скачан:641 раз
Скачать  

14-09-2013 12:46 Влacть убеждений Скачать торрент  

Влacть убеждений / The Power of Few
Год выпуска: 2013
Страна: США / Steelyard Pictures, iQ Films
Жанр: Боевик, триллер, драма, криминал, детектив,
Продолжительность: 01:35:57
Перевод: Профессиональный многоголосый, Лицензия
Субтитры: Английские

Режиссер: Леоне Маркуччи / Leone Marucci



В ролях: Кристофер Уокен, Кристиан Слэйтер, К’Орианка Килчер, Энтони Андерсон, Джесси Брэдфорд, Мун Бладгуд, Никки Уилан, Девон Джирхарт, Джордан Прентис, Джувенил,

Описание: Через двадцать минут жизнь в маленьком городке в Новом Орлеане круто изменится. Как? Вариантов — бесчисленное множество, ведь за эти 20 минут может произойти бесчетное количество событий. Полисмены, шпионы, бродяги, криминальные авторитеты, религиозные лидеры, городские зеваки… — каждый может совершить нечто, что развернет течение истории в другом направлении. Ведь все мы неразрывно связаны друг с другом, даже если не подозреваем об этом! Выбор самого маленького человека может повлиять на самые большие события в мире…

Качество: BDRip-AVC [The Power Of Few 2013 1080p Bluray Remux AVC DTS HD MA 5 1 HDSpace]
Формат: MKV
Видео кодек: H.264
Аудио кодек: AC3
Видео: 1024x576 (16:9), 23,976 fps, 2365 Кbps, 0.167 bit/pixel
Аудио#1: 48 kHz, AC3 Dolby Digital, 3/2 (L,C,R,l,r) + LFE ch, 384.00 kbps | RUS
Аудио#2: 48 kHz, AC3 Dolby Digital, 3/2 (L,C,R,l,r) + LFE ch, 448.00 kbps | ENG

Релиз группы:
Автор рипа: potroks





General
Unique ID : 195808926259315277237466189268133433000 (0x934F6D6D1BC3097489F8642E8AE54EA8)
Complete name : Vlast'.Ubezhdenij.2013.L2.BDRip.x264.potroks.mkv
Format : Matroska
Format version : Version 4 / Version 2
File size : 2.14 GiB
Duration : 1h 35mn
Overall bit rate : 3 191 Kbps
Movie name : HELLYWOOD - rip by potroks
Encoded date : UTC 2013-09-14 12:25:20
Writing application : mkvmerge v5.9.0 ('On The Loose') built on Dec 15 2012 16:39:58
Writing library : libebml v1.3.0 + libmatroska v1.4.0

Video
ID : 1
Format : AVC
Format/Info : Advanced Video Codec
Format profile : High@L4.1
Format settings, CABAC : Yes
Format settings, ReFrames : 13 frames
Codec ID : V_MPEG4/ISO/AVC
Duration : 1h 35mn
Bit rate : 2 365 Kbps
Width : 1 024 pixels
Height : 576 pixels
Display aspect ratio : 16:9
Frame rate mode : Constant
Frame rate : 23.976 fps
Color space : YUV
Chroma subsampling : 4:2:0
Bit depth : 8 bits
Scan type : Progressive
Bits/(Pixel*Frame) : 0.167
Stream size : 1.54 GiB (72%)
Title : The Power of Few
Writing library : x264 core 125 r2208 d9d2288
Encoding settings : cabac=1 / ref=13 / deblock=1:-2:-1 / analyse=0x3:0x133 / me=umh / subme=11 / psy=1 / psy_rd=1.05:0.00 / mixed_ref=1 / me_range=32 / chroma_me=1 / trellis=2 / 8x8dct=1 / cqm=0 / deadzone=21,11 / fast_pskip=0 / chroma_qp_offset=-2 / threads=9 / lookahead_threads=1 / sliced_threads=0 / nr=0 / decimate=1 / interlaced=0 / bluray_compat=0 / constrained_intra=0 / bframes=14 / b_pyramid=2 / b_adapt=2 / b_bias=0 / direct=3 / weightb=1 / open_gop=0 / weightp=2 / keyint=240 / keyint_min=23 / scenecut=40 / intra_refresh=0 / rc_lookahead=150 / rc=2pass / mbtree=1 / bitrate=2365 / ratetol=1.0 / qcomp=0.70 / qpmin=0 / qpmax=69 / qpstep=4 / cplxblur=20.0 / qblur=0.5 / vbv_maxrate=20000 / vbv_bufsize=25000 / nal_hrd=none / ip_ratio=1.35 / aq=1:0.80
Language : English
Default : Yes
Forced : No

Audio #1
ID : 2
Format : AC-3
Format/Info : Audio Coding 3
Mode extension : CM (complete main)
Format settings, Endianness : Big
Codec ID : A_AC3
Duration : 1h 35mn
Bit rate mode : Constant
Bit rate : 384 Kbps
Channel count : 6 channels
Channel positions : Front: L C R, Side: L R, LFE
Sampling rate : 48.0 KHz
Bit depth : 16 bits
Compression mode : Lossy
Stream size : 264 MiB (12%)
Title : MVO | DD 5.1 @ 384 kbps
Language : Russian
Default : Yes
Forced : Yes

Audio #2
ID : 3
Format : AC-3
Format/Info : Audio Coding 3
Mode extension : CM (complete main)
Format settings, Endianness : Big
Codec ID : A_AC3
Duration : 1h 35mn
Bit rate mode : Constant
Bit rate : 448 Kbps
Channel count : 6 channels
Channel positions : Front: L C R, Side: L R, LFE
Sampling rate : 48.0 KHz
Bit depth : 16 bits
Compression mode : Lossy
Stream size : 308 MiB (14%)
Title : Original | DD 5.1 @ 448 kbps
Language : English
Default : No
Forced : No

Text
ID : 4
Format : UTF-8
Codec ID : S_TEXT/UTF8
Codec ID/Info : UTF-8 Plain Text
Language : English
Default : No
Forced : No

Menu
00:00:00.000 : en:00:00:00.000
00:15:58.832 : en:00:15:58.832
00:31:52.785 : en:00:31:52.785
00:40:26.966 : en:00:40:26.966
00:50:53.842 : en:00:50:53.842
01:01:29.060 : en:01:01:29.060
01:11:16.063 : en:01:11:16.063
01:31:53.841 : en:01:31:53.841
01:35:55.750 : en:01:35:55.750

pb.wtf



Скачать Влacть убеждений через торрент http://uploadpic.ru/img/2013-09/14/hlcxvnu1msfjnoyi7fcfrpmx6.jpg Скачать фильм Влacть убеждений через торрент бесплантно в хорошем качестве Описание: Через двадцать минут жизнь в маленьком городке в Новом Орлеане круто изменится. Как? Вариантов — бесчисленное множество, ведь за ... 8.9 10 12
Info! Золотая раздача, скачанное не засчитывается.
Торрент: Зарегистрирован [2013-09-14 12:46] · скачан: 641 раз
Статус: √ проверено
Размер: 2.14 GB
Как cкачать? Как скачать Влacть убеждений через торрент | UTorrent

28-11-2019 20:33  

Отключить всю рекламу на сайте

14-09-2013 14:05 Влacть убеждений Скачать торрент  

А ВЫ КОГДА-НИБУДЬ ПРИКУСЫВАЛИ ЩЕКУ???pb.wtf



14-09-2013 15:26 Влacть убеждений Скачать торрент  

dexyan писал(а):

А ВЫ КОГДА-НИБУДЬ ПРИКУСЫВАЛИ ЩЕКУ???

не парься до свадьбы заживет pb.wtf



    Дорогой пользователь! Огромная просьба, поблагодарите релизера, оцените раздачу и оставьте свои комментарий, если Вы скачали Влacть убеждений через торрент бесплатно! Внесите свою лепту в развитие PiratBit!
    Комментировать посты могут только пользователи прошедшие не сложную регистрацию
    Показать сообщения:    

    Влacть убеждений через торрент
    Скачать бесплатно Влacть убеждений
    Влacть убеждений скачать торрент
    Влacть убеждений смотреть онлайн
    Cкачать фильм Влacть убеждений бесплатно
    Влacть убеждений скачать торрент в хорошем качестве
    Влacть убеждений смотреть онлайн бесплатно в хорошем качестве


    Вы не можете начинать темы
    Вы не можете отвечать на сообщения
    Вы не можете редактировать свои сообщения
    Вы не можете удалять свои сообщения
    Вы не можете голосовать в опросах
    Вы не можете прикреплять файлы к сообщениям
    Вы можете скачивать файлы