1 сезон

1 сезон

iTunes

1

КиноПоиск HD

Кинопоиск HD

iTunes

13

1 сезон

RePack

30

Новинка

ВАЖНО

ИГРА 18+

pack

RePack

MK11
pack

Легкие деньги

RePack

jed

RePack

fifa19

RePack

RDR2

RePack

NEED FOR SPEED™ PAYBACK

4 сезон

9 сезон

Бесстыжие 9 сезон

Все сериалы

все сериалы на PB.wtf

RePack

FAR CRY 5
  
Magnet ссылка

Бал монстров / Monster's Ball (Марк Форстер / Marc Forster) [2001, США, драма, мелодрама, BDRip, Профессиональный (многоголосый, закадровый)+Оригинал pb.wtf

Бал монстров через торрент pb.wtf

Размер: 2.18 GB | Добавлен: 7 лет 6 мес. назад | Торрент скачан:124 раза
Скачать  

14-09-2013 13:18 Бал монстров Скачать торрент  

Бал монстров / Monster's Ball

«A lifetime of change can happen in a single moment.»

  • Год выпуска:2001
  • Страна:США
  • Жанр:драма, мелодрама

  • Продолжительность: 01:52:42
  • Перевод:Профессиональный (многоголосый, закадровый) Карусель + Оригинал

  • Субтитры: русские, английские |softsub SRT|(отдельно)
    • Режиссер:Марк Форстер / Marc Forster
    • Сценарий: Мило Аддика / Milo Addica, Уилл Рокос / Will Rokos
    • Продюсер: Ли Дэниелс / Lee Daniels, Мило Аддика / Milo Addica, Майкл Барнс / Michael Burns, Эрик Копелофф / Eric Kopeloff, Майкл Пасернек / Michael Paseornek

  • В ролях:Билли Боб Торнтон (Hank Grotowski), Холли Берри (Leticia Musgrove), Тейлор Симпсон (Lucille), Гэбриэлль Уитчер (Betty), Хит Леджер (Sonny Grotowski), Эмбер Рулс (Vera), Питер Бойл (Buck Grotowski), Чарльз Кауэн мл. (Willie Cooper), Тейлор Лагранж (Darryl Cooper), Мос Деф (Ryrus Cooper), Энтони Бин (Dappa Smith), Френсин Сигал (Georgia Ann Paynes)
    • Описание:
      Хэнк гордится своей редкой профессией и рассчитывает, что его сын Сонни продолжит семейную династию. Вот уже несколько поколений мужчины в их семье работают палачами, включая во время казни рубильник электрического стула.

  • Рейтинг
    kinopoisk.ru: 7.400 (7167)
    imdb.com: 7.10 (56 271)
    MPAA: R - Лицам до 17 лет обязательно присутствие взрослого

      Автор рипа: DaniLch
    • Качество:BDRip
    • Формат:AVI
    • Видео кодек: XviD
    • Аудио кодек:AC3
    • Видео: XviD, 720x304 (2.35:1), 1822 kbps, 23,976 fps, 0,347 bpp
    • Аудио №1: AC3 / 5.1 / 48 kHz / 384 kbps / 16 bit(RUS)
    • Аудио №2: AC3 / 5.1 / 48 kHz / 448 kbps / 16 bit(ENG)


    General
    Complete name : D:ТорентыBal.monstrov.2001.DUAL.BDRip.XviD.AC3.-HQCLUB.avi
    Format : AVI
    Format/Info : Audio Video Interleave
    File size : 2.18 GiB
    Duration : 1h 52mn
    Overall bit rate : 2 775 Kbps
    Movie name : Monster's Ball (2001) BDRip
    Director : DaniLch
    Genre : Drama/Romance
    Writing application : VirtualDubMod 1.5.10.2 (build 2542/release)

    Comment : R.G. HQCLUB

    Video
    ID : 0
    Format : MPEG-4 Visual
    Format profile : Advanced Simple@L5
    Format settings, BVOP : 1
    Format settings, QPel : No
    Format settings, GMC : No warppoints
    Format settings, Matrix : Custom
    Codec ID : XVID
    Codec ID/Hint : XviD
    Duration : 1h 52mn
    Bit rate : 1 822 Kbps
    Width : 720 pixels
    Height : 304 pixels
    Display aspect ratio : 2.35:1
    Frame rate : 23.976 fps
    Color space : YUV
    Chroma subsampling : 4:2:0
    Bit depth : 8 bits
    Scan type : Progressive
    Compression mode : Lossy
    Bits/(Pixel*Frame) : 0.347
    Stream size : 1.43 GiB (66%)
    Writing library : XviD 1.2.1 (UTC 2008-12-04)

    Audio #1
    ID : 1
    Format : AC-3
    Format/Info : Audio Coding 3
    Mode extension : CM (complete main)
    Codec ID : 2000
    Duration : 1h 52mn
    Bit rate mode : Constant
    Bit rate : 384 Kbps
    Channel(s) : 6 channels
    Channel positions : Front: L C R, Side: L R, LFE
    Sampling rate : 48.0 KHz
    Bit depth : 16 bits
    Compression mode : Lossy
    Stream size : 310 MiB (14%)
    Alignment : Split accross interleaves

    Audio #2
    ID : 2
    Format : AC-3
    Format/Info : Audio Coding 3
    Mode extension : CM (complete main)
    Codec ID : 2000
    Duration : 1h 52mn
    Bit rate mode : Constant
    Bit rate : 448 Kbps
    Channel(s) : 6 channels
    Channel positions : Front: L C R, Side: L R, LFE
    Sampling rate : 48.0 KHz
    Bit depth : 16 bits
    Compression mode : Lossy
    Stream size : 361 MiB (16%)
    Alignment : Split accross interleaves


    © Оформление by Vetalpb.wtf



  • Скачать Бал монстров через торрент https://pic.kartinco.top/images/3/zgyyk7xdk6.png Скачать фильм Бал монстров через торрент бесплантно в хорошем качестве Описание:Хэнк гордится своей редкой профессией и рассчитывает, что его сын Сонни продолжит семейную династию. Вот уже несколько поколений ... 9 10 8
    Info! Золотая раздача, скачанное не засчитывается.
    Торрент: Зарегистрирован [2013-09-14 13:18] · скачан: 124 раз
    Статус: √ проверено
    Размер: 2.18 GB
    Как cкачать? Как скачать Бал монстров через торрент | UTorrent

    28-11-2019 20:33  

    Отключить всю рекламу на сайте

      Дорогой пользователь! Огромная просьба, поблагодарите релизера, оцените раздачу и оставьте свои комментарий, если Вы скачали Бал монстров через торрент бесплатно! Внесите свою лепту в развитие PiratBit!
      Комментировать посты могут только пользователи прошедшие не сложную регистрацию
      Показать сообщения:    

      Бал монстров через торрент
      Скачать бесплатно Бал монстров
      Бал монстров скачать торрент
      Бал монстров смотреть онлайн
      Cкачать фильм Бал монстров бесплатно
      Бал монстров скачать торрент в хорошем качестве
      Бал монстров смотреть онлайн бесплатно в хорошем качестве


      Вы не можете начинать темы
      Вы не можете отвечать на сообщения
      Вы не можете редактировать свои сообщения
      Вы не можете удалять свои сообщения
      Вы не можете голосовать в опросах
      Вы не можете прикреплять файлы к сообщениям
      Вы можете скачивать файлы