1 сезон

1 сезон

iTunes

1

КиноПоиск HD

Кинопоиск HD

iTunes

13

1 сезон

RePack

30

Новинка

ВАЖНО

ИГРА 18+

pack

RePack

MK11
pack

Легкие деньги

RePack

jed

RePack

fifa19

RePack

RDR2

RePack

NEED FOR SPEED™ PAYBACK

4 сезон

9 сезон

Бесстыжие 9 сезон

Все сериалы

все сериалы на PB.wtf

RePack

FAR CRY 5
  
Magnet ссылка

В постели с врагом / Sleeping with the Enemy (Джозеф Рубин) [1991, триллер, драма, BDRip] DUB + Sub rus eng + original eng pb.wtf

В постели с врагом через торрент pb.wtf

Размер: 2.18 GB | Добавлен: 7 лет 7 мес. назад | Торрент скачан:165 раз
Скачать  

14-09-2013 13:28 В постели с врагом Скачать торрент  

В постели с врагом / Sleeping with the Enemy
Страна: США
Жанр: триллер, драма
Год выпуска: 1991
Продолжительность: 01:37:38
Перевод : Профессиональный (полное дублирование) + Оригинал
Cубтитры: русские, английские (внешние)
Режиссер:
Джозеф Рубин
В ролях:
Джулия Робертс, Патрик Берджин, Кевин Андерсон, Тони Абатемарко, Клодетт Невинс, Элизабет Лоуренс, Марита Герахти, Нэнси Фиш, Кайл Секор, Харли Вентон
Описание:
Благополучная с виду молодая супружеская пара с первых дней совместной жизни пребывает в атмосфере страха и напряжения… Красавица Лора Берни, доведенная до отчаяния ревностью и агрессивностью обожающего ее мужа Мартина и не знающая, как выпутаться из сетей брака, который стал для нее пыткой и тюрьмой, задумывает рискованную интригу.
Она решает сымитировать собственную гибель. И ей действительно удается начать новую жизнь под другим именем, встретить хорошего человека. Но бывший муж узнает правду и начинает преследование...


Качество видео: : BDRip
Формат видео: AVI
Видео кодек: XviD
Аудио кодек: AC3
Видео:720x384 (1.88:1), 23.976 fps, XviD build 63 ~2286 kbps avg, 0.34 bit/pixel
Аудио 1: 48 kHz, AC3 Dolby Digital, 3/2 (L,C,R,l,r) + LFE ch, ~448 kbps Rus
Аудио 2: 48 kHz, AC3 Dolby Digital, 3/2 (L,C,R,l,r) + LFE ch, ~448 kbps Eng
Complete name : F:VideoV. posteli. s vragom.1991.BDRipV. posteli. s vragom.1991.BDRip.avi
Format : AVI
Format/Info : Audio Video Interleave
Format profile : OpenDML
File size : 2.18 GiB
Duration : 1h 37mn
Overall bit rate : 3 200 Kbps
Writing application : VirtualDubModRus 1.5.10.2 (build 2542/release)
Writing library : VirtualDubMod build 2542/release

Video
ID : 0
Format : MPEG-4 Visual
Format profile : Advanced Simple@L5
Format settings, BVOP : 1
Format settings, QPel : No
Format settings, GMC : No warppoints
Format settings, Matrix : Custom
Codec ID : XVID
Codec ID/Hint : XviD
Duration : 1h 37mn
Bit rate : 2 287 Kbps
Width : 720 pixels
Height : 384 pixels
Display aspect ratio : 1.85:1
Frame rate : 23.976 fps
Color space : YUV
Chroma subsampling : 4:2:0
Bit depth : 8 bits
Scan type : Progressive
Compression mode : Lossy
Bits/(Pixel*Frame) : 0.345
Stream size : 1.56 GiB (71%)
Writing library : XviD 63

Audio #1
ID : 1
Format : AC-3
Format/Info : Audio Coding 3
Mode extension : CM (complete main)
Format settings, Endianness : Big
Codec ID : 2000
Duration : 1h 37mn
Bit rate mode : Constant
Bit rate : 448 Kbps
Channel(s) : 6 channels
Channel positions : Front: L C R, Side: L R, LFE
Sampling rate : 48.0 KHz
Bit depth : 16 bits
Compression mode : Lossy
Stream size : 313 MiB (14%)
Alignment : Split accross interleaves
Interleave, duration : 42 ms (1.00 video frame)
Interleave, preload duration : 500 ms

Audio #2
ID : 2
Format : AC-3
Format/Info : Audio Coding 3
Mode extension : CM (complete main)
Format settings, Endianness : Big
Codec ID : 2000
Duration : 1h 37mn
Bit rate mode : Constant
Bit rate : 448 Kbps
Channel(s) : 6 channels
Channel positions : Front: L C R, Side: L R, LFE
Sampling rate : 48.0 KHz
Bit depth : 16 bits
Compression mode : Lossy
Stream size : 313 MiB (14%)
Alignment : Split accross interleaves
Interleave, duration : 42 ms (1.00 video frame)
Interleave, preload duration : 500 ms
pb.wtf



Скачать В постели с врагом через торрент http://2.firepic.org/2/images/2014-12/18/54fx2rs0ixe7.jpg Скачать фильм В постели с врагом через торрент бесплантно в хорошем качестве Описание:Благополучная с виду молодая супружеская пара с первых дней совместной жизни пребывает в атмосфере страха и напряжения… Красавица ... 8.2 10 9
Info! Золотая раздача, скачанное не засчитывается.
Торрент: Зарегистрирован [2013-09-14 13:28] · скачан: 165 раз
Статус: √ проверено
Размер: 2.18 GB
Как cкачать? Как скачать В постели с врагом через торрент | UTorrent

28-11-2019 20:33  

Отключить всю рекламу на сайте

    Дорогой пользователь! Огромная просьба, поблагодарите релизера, оцените раздачу и оставьте свои комментарий, если Вы скачали В постели с врагом через торрент бесплатно! Внесите свою лепту в развитие PiratBit!
    Комментировать посты могут только пользователи прошедшие не сложную регистрацию
    Показать сообщения:    

    В постели с врагом через торрент
    Скачать бесплатно В постели с врагом
    В постели с врагом скачать торрент
    В постели с врагом смотреть онлайн
    Cкачать фильм В постели с врагом бесплатно
    В постели с врагом скачать торрент в хорошем качестве
    В постели с врагом смотреть онлайн бесплатно в хорошем качестве


    Вы не можете начинать темы
    Вы не можете отвечать на сообщения
    Вы не можете редактировать свои сообщения
    Вы не можете удалять свои сообщения
    Вы не можете голосовать в опросах
    Вы не можете прикреплять файлы к сообщениям
    Вы можете скачивать файлы