1 сезон

1 сезон

iTunes

1

КиноПоиск HD

Кинопоиск HD

iTunes

13

1 сезон

RePack

30

Новинка

ВАЖНО

ИГРА 18+

pack

RePack

MK11
pack

Легкие деньги

RePack

jed

RePack

fifa19

RePack

RDR2

RePack

NEED FOR SPEED™ PAYBACK

4 сезон

9 сезон

Бесстыжие 9 сезон

Все сериалы

все сериалы на PB.wtf

RePack

FAR CRY 5
  
Magnet ссылка

Вышибалы / Dodgeball: A True Underdog Story (Роусон Маршалл Тёрбер / Rawson Marshall Thurber) [2004, США, Германия, комедия, спорт, BDRip, Дубляж +MVO+Оригинал pb.wtf

Вышибалы через торрент pb.wtf

Размер: 1.45 GB | Добавлен: 7 лет 7 мес. назад | Торрент скачан:259 раз
Скачать  

14-09-2013 22:03 Вышибалы Скачать торрент  

Вышибалы / Dodgeball: A True Underdog Story

«Наша сила в наших ядрах»

  • Год выпуска:2004
  • Страна:США, Германия
  • Жанр:комедия, спорт

  • Продолжительность: 01:32:35
  • Перевод:Профессиональный (полное дублирование)

  • Субтитры: русские, английские отдельно
    • Режиссер:Роусон Маршалл Тёрбер / Rawson Marshall Thurber
    • Сценарий: Роусон Маршалл Тёрбер / Rawson Marshall Thurber
    • Продюсер: Стюарт Корнфелд / Stuart Cornfeld, Бен Стиллер / Ben Stiller, Мэри МакЛаглен / Mary McLaglen, Роудс Рейдер / Rhoades Rader

  • В ролях:Винс Вон (Peter La Fleur), Кристин Тейлор (Kate Veatch), Бен Стиллер (White Goodman), Рип Торн (Patches O'Houlihan), Джастин Лонг (Justin), Стивен Рут (Gordon), Джоэль Мур (Owen), Крис Уильямс (Dwight), Алан Тьюдик (Steve the Pirate), Мисси Пайл (Fran), Джамал Дафф (Me'Shell Jones), Гэри Коул (Cotton McKnight)
    • Описание:
      Владелец мега-сети фитнесс-центров готовит очередное поглощение. На очереди - районный спортзал, принадлежащий группе друзей. Чтобы сохранить зал, друзьям нужно срочно найти $50 тыс. Единственная здравая мысль - это срубить главный приз в национальном чемпионате вышибал...

  • Рейтинг
    kinopoisk.ru: 6.471 (5576)
    imdb.com: 6.60 (122 788)
    MPAA: PG-13 - Детям до 13 лет просмотр не желателен

      Автор рипа: : sociolog_melvas
    • Качество:BDRip
    • Формат:AVI
    • Видео кодек: XviD
    • Аудио кодек:AC3
    • Видео: XviD, 720x304 (2.35:1), 2041 kbps, 23,976 fps, 0,389 bpp
    • Аудио: AC3 / 2.0 / 48 kHz / 192 kbps / 16 bit
    • Аудио #2: 48 kHz, AC3 Dolby Digital, 3/2 (L,C,R,l,r) + LFE ch, ~448 kbps avg (MVO) отдельно
    • Аудио #3: 48 kHz, AC3 Dolby Digital, 3/2 (L,C,R,l,r) + LFE ch, ~448 kbps avg (ENG) отдельно


    General
    Complete name : D:ТорентыVyshibaly.2004.RUS.BDRip.XviD.AC3.-HQCLUB.avi
    Format : AVI
    Format/Info : Audio Video Interleave
    File size : 1.45 GiB
    Duration : 1h 32mn
    Overall bit rate : 2 243 Kbps
    Movie name : Вышибалы / Dodgeball: A True Underdog Story (2004) BDRip
    Director : sociolog_melvas
    Genre : комедия, спорт
    Writing application : VirtualDubMod 1.5.10.2 (build 2540/release)

    Comment : 10.09.2013

    Video
    ID : 0
    Format : MPEG-4 Visual
    Format profile : Advanced Simple@L5
    Format settings, BVOP : 1
    Format settings, QPel : No
    Format settings, GMC : No warppoints
    Format settings, Matrix : Custom
    Codec ID : XVID
    Codec ID/Hint : XviD
    Duration : 1h 32mn
    Bit rate : 2 042 Kbps
    Width : 720 pixels
    Height : 304 pixels
    Display aspect ratio : 2.35:1
    Frame rate : 23.976 fps
    Color space : YUV
    Chroma subsampling : 4:2:0
    Bit depth : 8 bits
    Scan type : Progressive
    Compression mode : Lossy
    Bits/(Pixel*Frame) : 0.389
    Stream size : 1.32 GiB (91%)
    Writing library : XviD 65

    Audio
    ID : 1
    Format : AC-3
    Format/Info : Audio Coding 3
    Mode extension : CM (complete main)
    Codec ID : 2000
    Duration : 1h 32mn
    Bit rate mode : Constant
    Bit rate : 192 Kbps
    Channel(s) : 2 channels
    Channel positions : Front: L R
    Sampling rate : 48.0 KHz
    Bit depth : 16 bits
    Compression mode : Lossy
    Stream size : 127 MiB (9%)
    Alignment : Split accross interleaves
    Interleave, duration : 42 ms (1.00 video frame)
    Interleave, preload duration : 500 ms


    © Оформление by Vetalpb.wtf



  • Скачать Вышибалы через торрент https://pic.kartinco.top/images/3/vm7imt545k.png Скачать фильм Вышибалы через торрент бесплантно в хорошем качестве Описание:Владелец мега-сети фитнесс-центров готовит очередное поглощение. На очереди - районный спортзал, принадлежащий группе друзей. ... 10 10 11
    Info! Золотая раздача, скачанное не засчитывается.
    Торрент: Зарегистрирован [2013-09-14 22:03] · скачан: 259 раз
    Статус: √ проверено
    Размер: 1.45 GB
    Как cкачать? Как скачать Вышибалы через торрент | UTorrent

    28-11-2019 20:33  

    Отключить всю рекламу на сайте

      Дорогой пользователь! Огромная просьба, поблагодарите релизера, оцените раздачу и оставьте свои комментарий, если Вы скачали Вышибалы через торрент бесплатно! Внесите свою лепту в развитие PiratBit!
      Комментировать посты могут только пользователи прошедшие не сложную регистрацию
      Показать сообщения:    

      Вышибалы через торрент
      Скачать бесплатно Вышибалы
      Вышибалы скачать торрент
      Вышибалы смотреть онлайн
      Cкачать фильм Вышибалы бесплатно
      Вышибалы скачать торрент в хорошем качестве
      Вышибалы смотреть онлайн бесплатно в хорошем качестве


      Вы не можете начинать темы
      Вы не можете отвечать на сообщения
      Вы не можете редактировать свои сообщения
      Вы не можете удалять свои сообщения
      Вы не можете голосовать в опросах
      Вы не можете прикреплять файлы к сообщениям
      Вы можете скачивать файлы