2 сезон

iTunes

MVO

1

2 сезон

iTunes

iTunes

1 сезон

RePack

30

Новинка

ВАЖНО

ИГРА 18+

pack

RePack

MK11
pack

Легкие деньги

RePack

jed

RePack

fifa19

RePack

RDR2

RePack

NEED FOR SPEED™ PAYBACK

4 сезон

9 сезон

Бесстыжие 9 сезон

Все сериалы

все сериалы на PB.wtf

RePack

FAR CRY 5

Anonymous, добрый вечер, мы не успеваем собрать деньги на оплату серверов за декабрь и январь, помогите нам пожалуйста в это трудное время. В качестве благодарности мы отключим Вам всю рекламу на сайте (укажите свой ник в строку Ваше имя)!

×
  
Magnet ссылка

В плену у космоса / Stranded (Роджер Кристиан / Roger Christian) [2013, Канада, Великобритания, ужасы, фантастика, HDRip, Профессиональный (двухголосый) [НТВ+] pb.wtf

В плену у космоса через торрент pb.wtf

Размер: 1.37 GB | Добавлен: 7 лет 4 мес. назад | Торрент скачан:902 раза
Скачать  

14-09-2013 22:41 В плену у космоса Скачать торрент  

В плену у космоса / Stranded

«Germinate. Contaminate. Annihilate...»

  • Год выпуска:2013
  • Страна:Канада, Великобритания
  • Жанр:ужасы, фантастика

  • Продолжительность: 01:27:44
  • Перевод:Профессиональный (двухголосый) [НТВ+]

  • Субтитры: Нет
    • Режиссер:Роджер Кристиан / Roger Christian
    • Сценарий: Кристиан Пьерс Бетли / Christian Piers Betley, Роджер Кристиан / Roger Christian
    • Продюсер: Марк Монтаг / Mark Montague, Изабелла Марчезе Рагона / Isabella Marchese Ragona, Дэвид Корникан / David Cormican, Кевин ДеУолт / Kevin DeWalt, Gi Fernando

  • В ролях:Кристиан Слэйтер (Col. Gerard Brauchman), Брендан Фер (Dr. Lance Krauss), Эми Матисио (Ava Cameron), Майкл Терриоль (Bruce Johns), Марк Клэкстон (Guard #1), Риланд Александр (Marrietta), Линдон Брэй (Madsen)
    • Описание:
      Сюжет расскажет про четырех астронавтов, которые оказались изолированы от мира на борту космического корабля и сталкиваются с мистическими явлениями, паранойей и страхом смерти после того, как корабль попадает в метеоритный шторм.

      Примечание: отсутсвует примерно минута перевода!
    • Качество:HDRip
    • Формат:AVI
    • Видео кодек: XviD
    • Аудио кодек:AC3
    • Видео: XviD, 720x304 (2.35:1), 1771 kbps, 23,976 fps, 0,338 bpp
    • Аудио №1: AC3 / 2.0 / 48 kHz / 320 kbps / 16 bit-Russian
    • Аудио №2: MP3 / 2.0 / 44 kHz / 128 kbps /English


    General
    Complete name : D:ТорентыStranded.2013.P.HDRip.1400MB.avi
    Format : AVI
    Format/Info : Audio Video Interleave
    File size : 1.37 GiB
    Duration : 1h 27mn
    Overall bit rate mode : Variable
    Overall bit rate : 2 234 Kbps
    Writing application : VirtualDubMod 1.5.10.2 (build 2540/release)
    Writing library : VirtualDubMod build 2540/release

    Video
    ID : 0
    Format : MPEG-4 Visual
    Format profile : Advanced Simple@L5
    Format settings, BVOP : 2
    Format settings, QPel : No
    Format settings, GMC : No warppoints
    Format settings, Matrix : Custom
    Codec ID : XVID
    Codec ID/Hint : XviD
    Duration : 1h 27mn
    Bit rate : 1 772 Kbps
    Width : 720 pixels
    Height : 304 pixels
    Display aspect ratio : 2.35:1
    Frame rate : 23.976 fps
    Color space : YUV
    Chroma subsampling : 4:2:0
    Bit depth : 8 bits
    Scan type : Progressive
    Compression mode : Lossy
    Bits/(Pixel*Frame) : 0.338
    Stream size : 1.09 GiB (79%)
    Writing library : XviD 1.2.1 (UTC 2008-12-04)

    Audio #1
    ID : 1
    Format : AC-3
    Format/Info : Audio Coding 3
    Mode extension : CM (complete main)
    Codec ID : 2000
    Duration : 1h 27mn
    Bit rate mode : Constant
    Bit rate : 320 Kbps
    Channel(s) : 2 channels
    Channel positions : Front: L R
    Sampling rate : 48.0 KHz
    Bit depth : 16 bits
    Compression mode : Lossy
    Stream size : 201 MiB (14%)
    Alignment : Split accross interleaves
    Interleave, duration : 42 ms (1.00 video frame)
    Interleave, preload duration : 500 ms

    Audio #2
    ID : 2
    Format : MPEG Audio
    Format version : Version 1
    Format profile : Layer 3
    Codec ID : 55
    Codec ID/Hint : MP3
    Duration : 1h 27mn
    Bit rate mode : Variable
    Bit rate : 128 Kbps
    Channel(s) : 2 channels
    Sampling rate : 44.1 KHz
    Compression mode : Lossy
    Stream size : 80.3 MiB (6%)
    Alignment : Split accross interleaves
    Interleave, duration : 42 ms (1.00 video frame)
    Interleave, preload duration : 500 ms
    Writing library : LAME3.99r
    Encoding settings : -m s -V 4 -q 3 -lowpass 17 -b 128


    © Оформление by Vetalpb.wtf



  • Скачать В плену у космоса через торрент http://i4.imageban.ru/out/2013/09/15/fd744b862771bbffcff987b4c2630e23.jpg Скачать фильм В плену у космоса через торрент бесплантно в хорошем качестве Описание:Сюжет расскажет про четырех астронавтов, которые оказались изолированы от мира на борту космического корабля и сталкиваются с ... 9.4 10 26
    Info! Золотая раздача, скачанное не засчитывается.
    Торрент: Зарегистрирован [2013-09-14 22:41] · скачан: 902 раз
    Статус: √ проверено
    Размер: 1.37 GB
    Как cкачать? Как скачать В плену у космоса через торрент | UTorrent

    % Раздел Тема Автор DL S | L
    Фильмы 2013 (Звук TS, Cam, VO, DVO) [ 1.37 GB ] В плену у космоса / Stranded [2013 BDRip VO] Drakosha Скачать
    1 | 0
    T Фильмы [HD 720p, 1080p] (Хороший звук DUB, MVO) [ 4.64 GB ] В плену у космоса / Stranded [2013 BDRip 720p] VO [den904] Ворон Скачать
    1 | 0

    28-11-2019 20:33  

    Отключить всю рекламу на сайте

    14-09-2013 23:40 В плену у космоса Скачать торрент  

    Что то не тянет на перевод от НТВ+pb.wtf



    15-09-2013 04:20 В плену у космоса Скачать торрент  

    Слейтер во всем говне стал постоянно сниматься, с деньгами напряг?pb.wtf



    15-09-2013 04:44 В плену у космоса Скачать торрент  

    рейтинг на кинопоиске 3,6...pb.wtf



    15-09-2013 05:33 В плену у космоса Скачать торрент  

    vaha79 писал(а):

    Слейтер во всем говне стал постоянно сниматься, с деньгами напряг?

    Он всю жизнь во всяком говне снимается, есть исключения несколько фильмов (и то есть подозрения, что он туда случайно попал)pb.wtf



    15-09-2013 06:59 В плену у космоса Скачать торрент  

    vaha79 писал(а):

    Слейтер во всем говне стал постоянно сниматься, с деньгами напряг?

    Он всю жизнь во всяком говне снимается, есть исключения несколько фильмов (и то есть подозрения, что он туда случайно попал)pb.wtf



    15-09-2013 08:01 В плену у космоса Скачать торрент  

    Осилил... Только человек с стальными нервами сможет досмотреть и не выключить это де.ьмо!!!pb.wtf



      Дорогой пользователь! Огромная просьба, поблагодарите релизера, оцените раздачу и оставьте свои комментарий, если Вы скачали В плену у космоса через торрент бесплатно! Внесите свою лепту в развитие PiratBit!
      Комментировать посты могут только пользователи прошедшие не сложную регистрацию
      Показать сообщения:    

      В плену у космоса через торрент
      Скачать бесплатно В плену у космоса
      В плену у космоса скачать торрент
      В плену у космоса смотреть онлайн
      Cкачать фильм В плену у космоса бесплатно
      В плену у космоса скачать торрент в хорошем качестве
      В плену у космоса смотреть онлайн бесплатно в хорошем качестве


      Вы не можете начинать темы
      Вы не можете отвечать на сообщения
      Вы не можете редактировать свои сообщения
      Вы не можете удалять свои сообщения
      Вы не можете голосовать в опросах
      Вы не можете прикреплять файлы к сообщениям
      Вы можете скачивать файлы