MEGA SALE -50% FORZA HORIZON 4 ULTIMATE+ВСЕ DLC+ОНЛАЙН всего за 599р. 299 руб. (супер цена). Внимание количество ограничено!!!

iTunes

1+1

iTunes

мы

iTunes

1

iTunes

Чернобыль

iTunes

Ральф против интернета

Лицензия

ПШазам

Лицензия

Игра престолов

Лицензия

30
pack

ВАЖНО

!!Акция!!

Alien_RageХит недели

RePack

Resident Evil 21

ИГРА 18+

pack

RePack

Metro:Exodus

!!Акция!!

Alien_Rage

RePack

fifa19

RePack

Assassins Creed: Odyssey

RePack

NEED FOR SPEED™ PAYBACK

3 сезон

9 сезон

Бесстыжие 9 сезон

Все сериалы

все сериалы на PB.wtf

RePack

FAR CRY 5
Ребята, катастрофически не хватает 7730р. для оплаты серверов за ИЮЛЬ (всвязи с блокировками трафик упал в 3 раза), 1-2р., выручайте.
  

Семейка Крудс / The Croods (Кирк де Микко, Крис Сандерс / Kirk De Micco, Chris Sanders) [2013 г., мультфильм, комедия, приключения, семейный, BDRip-AVC] pb.wtf

Семейка Крудс через торрент pb.wtf

Размер: 2.19 GB | Добавлен: 5 лет 11 мес. назад | Торрент скачан:1162 раза
Скачать  

16-09-2013 05:20 Семейка Крудс Скачать торрент  

Семейка Крудс / The Croods
Год выпуска: 2013
Страна: США / DreamWorks Animation
Жанр: мультфильм, комедия, приключения, семейный,
Продолжительность: 01:38:56
Тип релиза: Лицензия
Субтитры: Русские, английские

Режиссер: Кирк де Микко Крис Сандерс / Kirk De Micco Chris Sanders



В ролях: Эмма Стоун, Райан Рейнольдс, Николас Кейдж, Кэтрин Кинер, Клорис Личмен, Кларк Дьюк, Крис Сандерс,

Описание: Землетрясение уничтожило дом доисторической семьи, и теперь Крудсам придётся искать другое пристанище. А вокруг новый и опасный мир! Им на помощь приходит молодой кочевник Малой, передовые взгляды которого наталкиваются на консервативность главы семьи Груга. Но только вместе они смогут выжить и достичь своей цели.

Качество: BDRip-AVC [THE_CROODS_2013_REMUX_HDCLUB]
Формат: MKV
Видео кодек: H.264
Аудио кодек: AC3
Видео: 1120x476 (2,35:1), 23,976 fps, 2276 Кbps, 0.178 bit/pixel
Аудио#1: 48 kHz, AC3 Dolby Digital, 3/2 (L,C,R,l,r) ch, 448.00 kbps | DUB
Аудио#2: 48 kHz, AC3 Dolby Digital, 3/2 (L,C,R,l,r) ch, 448.00 kbps | ENG

Релиз группы:
Автор рипа: potroks





Общее
Уникальный идентификатор : 243784318175106215001936165398799720927 (0xB76726DEA0FA8E8690966D2CC03C21DF)
Полное имя : Semejka.Krouds.2013.DUAL.BDRip.x264.-HELLYWOOD.mkv
Формат : Matroska
Версия формата : Version 4 / Version 2
Размер файла : 2,19 Гбайт
Продолжительность : 1 ч. 38 м.
Общий поток : 3174 Кбит/сек
Название фильма : HELLYWOOD - rip by potroks
Дата кодирования : UTC 2013-09-15 22:08:49
Программа кодирования : mkvmerge v5.9.0 ('On The Loose') built on Dec 15 2012 16:39:58
Библиотека кодирования : libebml v1.3.0 + libmatroska v1.4.0

Видео
Идентификатор : 1
Формат : AVC
Формат/Информация : Advanced Video Codec
Профиль формата : High@L4.1
Параметр CABAC формата : Да
Параметр ReFrames формата : 12 кадров
Идентификатор кодека : V_MPEG4/ISO/AVC
Продолжительность : 1 ч. 38 м.
Битрейт : 2276 Кбит/сек
Ширина : 1120 пикселей
Высота : 476 пикселей
Соотношение сторон : 2,35:1
Режим частоты кадров : Постоянный
Частота кадров : 23,976 кадра/сек
Цветовое пространство : YUV
Субдискретизация насыщенности : 4:2:0
Битовая глубина : 8 бит
Тип развёртки : Прогрессивная
Бит/(Пиксели*Кадры) : 0.178
Размер потока : 1,53 Гбайт (70%)
Заголовок : The Croods
Библиотека кодирования : x264 core 130 r2273 b3065e6
Настройки программы : cabac=1 / ref=12 / deblock=1:-1:-1 / analyse=0x3:0x133 / me=umh / subme=11 / psy=1 / psy_rd=1.05:0.00 / mixed_ref=1 / me_range=48 / chroma_me=1 / trellis=2 / 8x8dct=1 / cqm=0 / deadzone=21,11 / fast_pskip=0 / chroma_qp_offset=-2 / threads=8 / lookahead_threads=2 / sliced_threads=0 / nr=0 / decimate=0 / interlaced=0 / bluray_compat=0 / constrained_intra=0 / bframes=13 / b_pyramid=2 / b_adapt=2 / b_bias=0 / direct=3 / weightb=1 / open_gop=0 / weightp=2 / keyint=250 / keyint_min=23 / scenecut=40 / intra_refresh=0 / rc_lookahead=60 / rc=2pass / mbtree=0 / bitrate=2276 / ratetol=1.0 / qcomp=0.70 / qpmin=0 / qpmax=69 / qpstep=4 / cplxblur=20.0 / qblur=0.5 / vbv_maxrate=20000 / vbv_bufsize=25000 / nal_hrd=none / ip_ratio=1.35 / pb_ratio=1.40 / aq=1:0.70
Язык : English
Default : Да
Forced : Нет

Аудио #1
Идентификатор : 2
Формат : AC-3
Формат/Информация : Audio Coding 3
Расширение режима : CM (complete main)
Параметр Endianness формата : Big
Идентификатор кодека : A_AC3
Продолжительность : 1 ч. 38 м.
Вид битрейта : Постоянный
Битрейт : 448 Кбит/сек
Каналы : 6 каналов
Расположение каналов : Front: L C R, Side: L R, LFE
Частота : 48,0 КГц
Битовая глубина : 16 бит
Метод сжатия : С потерями
Размер потока : 316 Мбайт (14%)
Заголовок : Dub | DD 5.1 @ 448 kbps
Язык : Russian
Default : Да
Forced : Да

Аудио #2
Идентификатор : 3
Формат : AC-3
Формат/Информация : Audio Coding 3
Расширение режима : CM (complete main)
Параметр Endianness формата : Big
Идентификатор кодека : A_AC3
Продолжительность : 1 ч. 38 м.
Вид битрейта : Постоянный
Битрейт : 448 Кбит/сек
Каналы : 6 каналов
Расположение каналов : Front: L C R, Side: L R, LFE
Частота : 48,0 КГц
Битовая глубина : 16 бит
Метод сжатия : С потерями
Размер потока : 316 Мбайт (14%)
Заголовок : Original | DD 5.1 @ 448 kbps
Язык : English
Default : Нет
Forced : Нет

Текст #1
Идентификатор : 4
Формат : UTF-8
Идентификатор кодека : S_TEXT/UTF8
Идентификатор кодека/Информация : UTF-8 Plain Text
Язык : Russian
Default : Нет
Forced : Нет

Текст #2
Идентификатор : 5
Формат : UTF-8
Идентификатор кодека : S_TEXT/UTF8
Идентификатор кодека/Информация : UTF-8 Plain Text
Язык : English
Default : Нет
Forced : Нет

pb.wtf



Скачать Семейка Крудс через торрент http://uploadpic.ru/img/2013-09/16/f82rbtncfc48ftbe0ex721ztb.png Скачать фильм Семейка Крудс через торрент бесплантно в хорошем качестве Описание: Землетрясение уничтожило дом доисторической семьи, и теперь Крудсам придётся искать другое пристанище. А вокруг новый и опасный ... 10 10 21
Info! Золотая раздача, скачанное не засчитывается.
Торрент: Зарегистрирован [2013-09-16 05:20] · скачан: 1 162 раз
Статус: √ проверено
Размер: 2.19 GB
Как cкачать? Как скачать Семейка Крудс через торрент | qTorrent

% Раздел Тема Автор DL S | L
Зарубежные Мультфильмы (BDRip 1080p, 720p, Blu-ray, BD-Remux) [ 5.28 GB ] Семейка Крудс / The Croods [2013 Мультфильм BDRip 1080p HEVC ()] Мичман37 Скачать
3 | 0
Мультсериалы [ 4.56 GB ] Крудсы: Начало / Семейка Крудс. Начало / Dawn of the Croods / Сезон: 2 / Серии 1-13 из 13 [2016 мультфильм WEBRip 720p] MVO [NewStudio] GEKADOL Скачать
1 | 0
Мультсериалы [ 5.9 GB ] Крудсы: Начало / Семейка Крудс. Начало / Dawn of the Croods / Сезон: 1 / Серии 1-13 из 13 [2015 мультфильм WEBRip-AVC] MVO [NewStudio GEKADOL Скачать
1 | 1
Иностранные мультфильмы [ 1.37 GB ] Семейка Крудс / The Croods [2013 мультфильм DVDRip [лицензия] Ворон Скачать
3 | 0
Мультфильмы (48-60 fps) [ 9.85 GB ] Семейка Крудс / The Croods [2013 мультфильм BDRip 1080p ] 60 fps -=DANTE=- Скачать
1 | 0
Зарубежные Мультфильмы (DVD) [ 6.93 GB ] Семейка Крудс / The Croods [2013 мультфильм DVD9] R5 voovaz Скачать
1 | 0
3D Мультфильмы [ 10.09 GB ] Семейка Крудс в 3D/ The Croods in 3D [2013 мультфильм BDRip 1080p ] Анаглиф slaventi-69 Скачать
1 | 0


>> Регистрируемся здесь <<






Отзывы и комментарии о схеме читаем и пишем здесь: ---> Отзывы и комментарии о схеме

Новые благодарочки в телеграм довольных пользователей:
скриншот   скриншот   скриншот   скриншот   скриншот

05-05-2014 16:05 Семейка Крудс Скачать торрент  

семпла нет Этот файл всё ещё заливается!pb.wtf



    Дорогой пользователь! Огромная просьба, поблагодарите релизера, оцените раздачу и оставьте свои комментарий, если Вы скачали Семейка Крудс через торрент бесплатно! Внесите свою лепту в развитие PiratBit!
    Комментировать посты могут только пользователи прошедшие не сложную регистрацию
    Показать сообщения:    

    Семейка Крудс через торрент
    Скачать бесплатно Семейка Крудс
    Семейка Крудс скачать торрент
    Семейка Крудс смотреть онлайн
    Cкачать фильм Семейка Крудс бесплатно
    Семейка Крудс скачать торрент в хорошем качестве
    Семейка Крудс смотреть онлайн бесплатно в хорошем качестве


    Вы не можете начинать темы
    Вы не можете отвечать на сообщения
    Вы не можете редактировать свои сообщения
    Вы не можете удалять свои сообщения
    Вы не можете голосовать в опросах
    Вы не можете прикреплять файлы к сообщениям
    Вы можете скачивать файлы