Всегда рабочее зеркало без VPN и Proxy просто перед .vidak.icu напиши любое слово или цифру, Пример http://r9m1.vidak.icu

Лицензия

MVO

1 сезон

1

1 сезон

iTunes

1 сезон

13

1 сезон

Deluxe

pack

Рекомендуем

Repack

30

ВАЖНО

RePack

MK11

RePack

jed

RePack

fifa19

RePack

RDR2

RePack

NEED FOR SPEED™ PAYBACK

Кинопоиск HD

6 сезон

 Острые козырьки 6 сезон

Все сериалы

все сериалы на PB.wtf

RePack

FAR CRY 5
  
Magnet ссылка

Молодыe итальянскиe студентки / Jeunes etudiantes Italiennes (Gazzman / Marc Dorcel) [2013 г., Feature, Couples, Vignettes, PornStars, Fantasies, Uniform, Teen, DVDRip-AVC, Оригинал] pb.wtf

Молодыe итальянскиe студентки через торрент pb.wtf

Размер: 1.47 GB | Добавлен: 8 лет 11 мес. назад | Торрент скачан:724 раза
Смотреть онлайн Молодыe итальянскиe студентки | Скачать    Ребята, помогите собрать деньги на оплату серверов!!!

16-09-2013 07:40 Молодыe итальянскиe студентки Скачать торрент  

Молодыe итальянскиe студентки / Jeunes etudiantes Italiennes
Год выпуска: 2013
Страна: Франция
Жанр: Feature, Couples, Vignettes, PornStars, Fantasies, Uniform, Teen
Продолжительность: 02:11:11
Перевод: Оригинал

Режиссер: Gazzman
Студия: Marc Dorcel

В ролях:
Samantha Bentley, Yanick Shaft, Henessy, Marco Banderas, Mira, Coco del Mal, Emma Leigh

Описание:
Viva Italia! Les Etudiantes sont de retour et elles sont prêtes à tout chambouler lors de leur passage à l'Académie de Venise. Ces petites salopes affamées participent à quelques activités extrascolaires et apprennent parfaitement leurs leçons pour obtenir un A dans toutes les matières et devenir des putes professionnelles!

Качество: DVDRip-AVC
Формат: MP4
Видео кодек: H.264
Аудио кодек: AAC
Видео: MPEG4 Video (H264) 720x480 23.976 fps 1 497 Kbps
Аудио: AAC 44100Hz stereo 102kbps
Общее
Полное имя : Education Tres Severe Jeunes Etudiantes Italiennes.mp4
Формат : MPEG-4
Профиль формата : Base Media
Идентификатор кодека : isom
Размер файла : 1,47 Гбайт
Продолжительность : 2 ч. 11 м.
Режим общего битрейта : Переменный
Общий поток : 1605 Кбит/сек
Дата кодирования : UTC 2013-09-16 05:09:54
Дата пометки : UTC 2013-09-16 05:09:54

Видео
Идентификатор : 2
Формат : AVC
Формат/Информация : Advanced Video Codec
Профиль формата : [email protected]
Параметр CABAC формата : Нет
Параметр ReFrames формата : 1 кадр
Параметр GOP формата : M=1, N=10
Идентификатор кодека : avc1
Идентификатор кодека/Информация : Advanced Video Coding
Продолжительность : 2 ч. 11 м.
Вид битрейта : Переменный
Битрейт : 1497 Кбит/сек
Максимальный битрейт : 2250 Кбит/сек
Ширина : 720 пикселей
Высота : 480 пикселей
Соотношение сторон : 3:2
Режим частоты кадров : Постоянный
Частота кадров : 23,976 кадра/сек
Стандарт вещания : NTSC
Цветовое пространство : YUV
Субдискретизация насыщенности : 4:2:0
Битовая глубина : 8 бит
Тип развёртки : Прогрессивная
Бит/(Пиксели*Кадры) : 0.181
Размер потока : 1,37 Гбайт (93%)
Язык : English

Аудио
Идентификатор : 1
Формат : AAC
Формат/Информация : Advanced Audio Codec
Профиль формата : LC
Идентификатор кодека : 40
Продолжительность : 2 ч. 11 м.
Вид битрейта : Постоянный
Битрейт : 103 Кбит/сек
Каналы : 2 канала
Расположение каналов : Front: L R
Частота : 44,1 КГц
Метод сжатия : С потерями
Размер потока : 96,4 Мбайт (6%)
Язык : English[/code]

pb.wtf



pack Скачать Молодыe итальянскиe студентки через торрент http://i57.fastpic.ru/big/2013/0916/6b/f6a83f0a413972abdd74439ef2f5936b.png Скачать, смотреть онлайн Молодыe итальянскиe студентки бесплантно в хорошем качестве Описание: Viva Italia! Les Etudiantes sont de retour et elles sont prêtes à tout chambouler lors de leur passage à l'Académie de Venise. ... 9.4 10 28
Info! Золотая раздача, скачанное не засчитывается.
Торрент: Зарегистрирован [2013-09-16 07:40] · скачан: 724 раз
Статус: √ проверено
Размер: 1.47 GB
Как cкачать? Как скачать Молодыe итальянскиe студентки через торрент | UTorrent

28-11-2019 20:33  

Отключить вcю реклaмy на сайте

    Дорогой пользователь! Огромная просьба, поблагодарите релизера, оцените раздачу и оставьте свои комментарий, если Вы скачали Молодыe итальянскиe студентки через торрент бесплатно!
    Комментировать посты могут только пользователи прошедшие не сложную регистрацию
    Показать сообщения:    

    Молодыe итальянскиe студентки через торрент
    Скачать бесплатно Молодыe итальянскиe студентки
    Молодыe итальянскиe студентки скачать торрент
    Молодыe итальянскиe студентки смотреть онлайн
    Cкачать фильм Молодыe итальянскиe студентки бесплатно
    Молодыe итальянскиe студентки скачать торрент в хорошем качестве
    Молодыe итальянскиe студентки смотреть онлайн бесплатно в хорошем качестве


    Вы не можете начинать темы
    Вы не можете отвечать на сообщения
    Вы не можете редактировать свои сообщения
    Вы не можете удалять свои сообщения
    Вы не можете голосовать в опросах
    Вы не можете прикреплять файлы к сообщениям
    Вы можете скачивать файлы