2 сезон

iTunes

MVO

1

2 сезон

iTunes

iTunes

1 сезон

RePack

30

Ultimate

ВАЖНО

ИГРА 18+

pack

RePack

MK11
pack

Легкие деньги

RePack

jed

RePack

fifa19

RePack

RDR2

RePack

NEED FOR SPEED™ PAYBACK

4 сезон

9 сезон

Бесстыжие 9 сезон

Все сериалы

все сериалы на PB.wtf

RePack

FAR CRY 5

Anonymous, доброе утро, мы не успеваем собрать деньги на оплату серверов за декабрь и январь, помогите нам пожалуйста в это трудное время. В качестве благодарности мы отключим Вам всю рекламу на сайте (укажите свой ник в строку Ваше имя)!

×
  
Magnet ссылка

Возвращение волшебников: Алекс против Алекс (ТВ) / The Wizards Return: Alex vs. Alex (Виктор Гонзалез / Victor Gonzalez) [2013 , США , фэнтези, драма, комедия , DVB , DUB] pb.wtf

Возвращение волшебников: Алекс против Алекс через торрент pb.wtf

Размер: 1.59 GB | Добавлен: 7 лет 4 мес. назад | Торрент скачан:258 раз
Скачать  

16-09-2013 11:25 Возвращение волшебников: Алекс против Алекс Скачать торрент  

Возвращение волшебников: Алекс против Алекс (ТВ) / The Wizards Return: Alex vs. Alex

Слоган: «Everything is not what it seems»
Год выпуска: 2013
Страна: США
Жанр: фэнтези, драма, комедия, приключения, семейный
Продолжительность: 00:56:11
Перевод: Профессиональный (полное дублирование) |Студия "НЕВА ФИЛЬМ"|

Режиссер: Виктор Гонзалез / Victor Gonzalez
В ролях: Селена Гомес (Alex Russo), Джейк Т. Остин (Max Russo), Дженнифер Стоун (Harper Finkle), Грегг Салкин (Mason Greyback), Бо Мирчофф (Dominic), Мария Кэнелс-Баррера (Theresa Russo), Дэвид ДеЛуис (Jerry Russo), Наталия Ногулич (Carmela), Антонелла Лентини (Francesca), Джек Доннер (Papa Fabrizio), Тера Хендирксон (Newscaster 1), Энтони Палермо (Newscaster 2)

Описание: Волшебная семейка Руссо - снова в центре внимания. В одно прекрасное лето Тереза, Джерри и Макс с друзьями Харпер и Мейсоном отправляются в солнечную Италию. Но Алекс остается дома, желая доказать близким, что она взрослая, и у нее своя жизнь. Вот только экспериментируя с заклинаниями, она случайно разделяет свою душу пополам. Наружу выходит злая Алекс, мечтающая захватить мир. А добрая кудесница вынуждена не только её усмирять, но и лететь через океан, чтобы спасти близких от чар злодейки.

Рейтинг
kinopoisk.ru: 5.789 (366)
imdb.com: 6.00 (1316)
Мировая премьера: 15 марта 2013

  • Качество: DVB
  • Формат: MPEG-PS
  • Видео кодек: MPEG-2 Video
  • Аудио кодек: MP2
  • Видео: MPEG-2 Video, 720x576 (4:3), 3840 kbps, 25 fps, Interlaced (Top Field First), 0,370 bpp
  • Аудио: MPEG-1 Audio layer 2 / 2.0 / 48 kHz / 128 kbps /
    Format : MPEG-PS
    File size : 1.59 GiB
    Duration : 56mn 11s
    Overall bit rate mode : Variable
    Overall bit rate : 4 050 Kbps
    Writing library : (c) 1998-2012 Womble Multimedia, Inc. / MPEG Video Wizard DVD 5.0.1.100 (03/2011) / Sep 7 2012

    Video
    ID : 224 (0xE0)
    Format : MPEG Video
    Format version : Version 2
    Format profile : Main@Main
    Format settings, BVOP : Yes
    Format settings, Matrix : Custom
    Duration : 56mn 11s
    Bit rate mode : Variable
    Bit rate : 3 841 Kbps
    Maximum bit rate : 10 000 Kbps
    Width : 720 pixels
    Height : 576 pixels
    Display aspect ratio : 4:3
    Frame rate : 25.000 fps
    Standard : PAL
    Color space : YUV
    Chroma subsampling : 4:2:0
    Bit depth : 8 bits
    Scan type : Interlaced
    Scan order : Top Field First
    Compression mode : Lossy
    Bits/(Pixel*Frame) : 0.370
    Stream size : 1.51 GiB (95%)
    Writing library : (c) 1998-2012 Womble Multimedia, Inc. / MPEG Video Wizard DVD 5.0.1.100 (03/2011) / Sep 7 2012

    Audio
    ID : 192 (0xC0)
    Format : MPEG Audio
    Format version : Version 1
    Format profile : Layer 2
    Duration : 56mn 11s
    Bit rate mode : Constant
    Bit rate : 128 Kbps
    Channel(s) : 2 channels
    Sampling rate : 48.0 KHz
    Compression mode : Lossy
    Delay relative to video : -80ms
    Stream size : 51.4 MiB (3%)

    Menu
    Сэмпл / Трейлер pb.wtf



  • Скачать Возвращение волшебников: Алекс против Алекс через торрент http://i5.imageban.ru/out/2013/09/16/88691adeadf7e9e745dc71ec15b41313.png Скачать фильм Возвращение волшебников: Алекс против Алекс через торрент бесплантно в хорошем качестве Описание: Волшебная семейка Руссо - снова в центре внимания. В одно прекрасное лето Тереза, Джерри и Макс с друзьями Харпер и Мейсоном ... 8.3 10 13
    Info! Золотая раздача, скачанное не засчитывается.
    Торрент: Зарегистрирован [2013-09-16 12:58] · скачан: 258 раз
    Статус: √ проверено
    Размер: 1.59 GB
    Как cкачать? Как скачать Возвращение волшебников: Алекс против Алекс через торрент | UTorrent

    % Раздел Тема Автор DL S | L
    Фильмы 2013 [DVDrip, WEB-DLRip, HDrip] [ 1.09 GB ] Возвращение волшебников: Алекс против Алекс / The Wizards Return: Alex vs. Alex [2013 WEB-DLRip-AVC от AVP Studio] Dub + Original + Sub AVP Studio Скачать
    1 | 0
    Фильмы 2013 [DVDrip, WEB-DLRip, HDrip] [ 749 MB ] Возвращение волшебников: Алекс против Алекс / The Wizards Return: Alex vs. Alex [2013 WEB-DLRip от AVP Studio] Dub + Original + Sub AVP Studio Скачать
    1 | 0

    28-11-2019 20:33  

    Отключить всю рекламу на сайте

    19-09-2013 10:45 Возвращение волшебников: Алекс против Алекс Скачать торрент  

    походу супер сказка, что ни одного комента pb.wtf



    19-09-2013 13:25 Возвращение волшебников: Алекс против Алекс Скачать торрент  

    да это эпоха элен и ребята смотреть лицам до 10 летpb.wtf



      Дорогой пользователь! Огромная просьба, поблагодарите релизера, оцените раздачу и оставьте свои комментарий, если Вы скачали Возвращение волшебников: Алекс против Алекс через торрент бесплатно! Внесите свою лепту в развитие PiratBit!
      Комментировать посты могут только пользователи прошедшие не сложную регистрацию
      Показать сообщения:    

      Возвращение волшебников: Алекс против Алекс через торрент
      Скачать бесплатно Возвращение волшебников: Алекс против Алекс
      Возвращение волшебников: Алекс против Алекс скачать торрент
      Возвращение волшебников: Алекс против Алекс смотреть онлайн
      Cкачать фильм Возвращение волшебников: Алекс против Алекс бесплатно
      Возвращение волшебников: Алекс против Алекс скачать торрент в хорошем качестве
      Возвращение волшебников: Алекс против Алекс смотреть онлайн бесплатно в хорошем качестве


      Вы не можете начинать темы
      Вы не можете отвечать на сообщения
      Вы не можете редактировать свои сообщения
      Вы не можете удалять свои сообщения
      Вы не можете голосовать в опросах
      Вы не можете прикреплять файлы к сообщениям
      Вы можете скачивать файлы