Ссылка на приватное зеркало нашего сайта всего за 1$. Внимание количество ограничено!!!

2 сезон

iTunes

1 сезон

1

2 сезон

2 сезон

iTunes

1 сезон

RePack

30

Ultimate

ВАЖНО

ИГРА 18+

pack

RePack

MK11
pack

Забери бонус

RePack

jed

!!Акция!!

Alien_Rage

RePack

fifa19

RePack

Assassins Creed: Odyssey

RePack

NEED FOR SPEED™ PAYBACK

4 сезон

9 сезон

Бесстыжие 9 сезон

Все сериалы

все сериалы на PB.wtf

RePack

FAR CRY 5
  

Тайные связи / Covert Affairs (Аллен Крокер / Allan Kroeker), Сезон: 1-3 [2010 - 2012 гг., боевик, драма, WEB-DLRip,] MVO(Fox Life), Original, Sub. pb.wtf

Тайные связи через торрент pb.wtf

Размер: 31.13 GB | Добавлен: 7 лет 2 мес. назад | Торрент скачан:21 раз
Скачать  

16-09-2013 15:19 Тайные связи Скачать торрент  



Тайные связи / Covert Affairs
Год выпуска: 2010 - 2012
Страна: США
Жанр: боевик, драма,
Продолжительность: ~00:43:02
Перевод: Профессиональный многоголосый закадровый(Fox Life)
Субтитры: англ(отдельно)

Режиссер: Аллен Крокер / Allan Kroeker



В ролях: Пайпер Перабо / Piper Perabo, Кристофер Горам / Christopher Gorham, Кэри Матчетт / Kari Matchett, Питер Галлахер / Peter Gallagher, Энн Дудек / Anne Dudek, Сендхил Рамамурти / Sendhil Ramamurthy, Одед Фер / Oded Fehr,

Описание: На новой работе всегда нелегко – особенно, если тебе предстоит работать в ЦРУ. Энни Уолкер (Пайпер Перабо) бегло говорит на шести языках, объездила весь мир и является самой лучшей ученицей в школе агентов ЦРУ. Но это все-равно не дает никакого объяснения, почему за месяц до окончания обучения, ее внезапно приглашают в главный офис ЦРУ и предлагают работу агента. Также для нее остается неизвестным, что в ее прошлом есть что-то или кто-то, очень интересующий ее боссов. Эгги Андерсон (Кристофер Горхем), техэксперт, потерявший зрение на одном из заданий, становится для Энни проводником и верным помощником в огромном мире интриг, опасности и бюрократии.
Релиз подготовлен:
Работа со звуком: Baggio
Рип: ЛП

Качество: WEB-DLRip
Формат: AVI
Видео кодек: XviD
Аудио кодек: AC3
Видео: 720x400, 23.976 fps, 2 000 Kbps
Аудио#1: Rus: 48 kHz, Dolby Digital, 2/0 (L,R) ch, ~192 kbps(Fox Life)
Аудио#2: Eng: 48 kHz, Dolby Digital, 2/0 (L,R) ch, ~192 kbps




General
Complete name : Covert.Affairs.s01e02.rus.eng.CasStudio.TV.avi
Format : AVI
Format/Info : Audio Video Interleave
File size : 738 MiB
Duration : 43mn 2s
Overall bit rate : 2 398 Kbps
Writing application : VirtualDubMod 1.5.10.2 (build 2540/release)
Writing library : VirtualDubMod build 2540/release

Video
ID : 0
Format : MPEG-4 Visual
Format profile : Advanced Simple@L5
Format settings, BVOP : Yes
Format settings, QPel : No
Format settings, GMC : No warppoints
Format settings, Matrix : Default (MPEG)
Codec ID : XVID
Codec ID/Hint : XviD
Duration : 43mn 2s
Bit rate : 2 000 Kbps
Width : 720 pixels
Height : 400 pixels
Display aspect ratio : 16:9
Frame rate : 23.976 fps
Color space : YUV
Chroma subsampling : 4:2:0
Bit depth : 8 bits
Scan type : Progressive
Bits/(Pixel*Frame) : 0.290
Stream size : 616 MiB (83%)
Writing library : XviD 65

Audio #1
ID : 1
Format : AC-3
Format/Info : Audio Coding 3
Mode extension : CM (complete main)
Codec ID : 2000
Duration : 43mn 2s
Bit rate mode : Constant
Bit rate : 192 Kbps
Channel(s) : 2 channels
Channel positions : Front: L R
Sampling rate : 48.0 KHz
Bit depth : 16 bits
Stream size : 59.1 MiB (8%)
Alignment : Split accross interleaves
Interleave, duration : 42 ms (1.00 video frame)
Interleave, preload duration : 500 ms

Audio #2
ID : 2
Format : AC-3
Format/Info : Audio Coding 3
Mode extension : CM (complete main)
Codec ID : 2000
Duration : 43mn 2s
Bit rate mode : Constant
Bit rate : 192 Kbps
Channel(s) : 2 channels
Channel positions : Front: L R
Sampling rate : 48.0 KHz
Bit depth : 16 bits
Stream size : 59.1 MiB (8%)
Alignment : Split accross interleaves
Interleave, duration : 42 ms (1.00 video frame)
Interleave, preload duration : 500 ms


Тайные связи скачать торрент


pb.wtf



Скачать Тайные связи через торрент http://pic.kartinco.top/images/3/hwo418okl4.jpg Скачать фильм Тайные связи через торрент бесплантно в хорошем качестве Описание: На новой работе всегда нелегко – особенно, если тебе предстоит работать в ЦРУ. Энни Уолкер (Пайпер Перабо) бегло говорит на шести ... 10 10 8
Info! Золотая раздача, скачанное не засчитывается.
Торрент: Зарегистрирован [2013-09-16 15:19] · скачан: 21 раз
Статус: √ проверено
Размер: 31.13 GB
Как cкачать? Как скачать Тайные связи через торрент | qTorrent

28-11-2019 20:33  

Отключить всю рекламу на сайте

    Дорогой пользователь! Огромная просьба, поблагодарите релизера, оцените раздачу и оставьте свои комментарий, если Вы скачали Тайные связи через торрент бесплатно! Внесите свою лепту в развитие PiratBit!
    Комментировать посты могут только пользователи прошедшие не сложную регистрацию
    Показать сообщения:    

    Тайные связи через торрент
    Скачать бесплатно Тайные связи
    Тайные связи скачать торрент
    Тайные связи смотреть онлайн
    Cкачать фильм Тайные связи бесплатно
    Тайные связи скачать торрент в хорошем качестве
    Тайные связи смотреть онлайн бесплатно в хорошем качестве


    Вы не можете начинать темы
    Вы не можете отвечать на сообщения
    Вы не можете редактировать свои сообщения
    Вы не можете удалять свои сообщения
    Вы не можете голосовать в опросах
    Вы не можете прикреплять файлы к сообщениям
    Вы можете скачивать файлы