Ссылка на приватное зеркало нашего сайта всего за 1$. Внимание количество ограничено!!!

2 сезон

iTunes

1 сезон

1

iTunes

iTunes

iTunes

1 сезон

RePack

30

ИГРА 18+

pack

ВАЖНО

!!Акция!!

Alien_RageХит недели

RePack

MK11
pack

Забери бонус

RePack

jed

!!Акция!!

Alien_Rage

RePack

fifa19

RePack

Assassins Creed: Odyssey

RePack

NEED FOR SPEED™ PAYBACK

4 сезон

9 сезон

Бесстыжие 9 сезон

Все сериалы

все сериалы на PB.wtf

RePack

FAR CRY 5
  

Гран Торино / Gran Torino (Клинт Иствуд) [2008 г., драма, криминал, BDRip 1080p, Дубляж + Оригинал] pb.wtf

Гран Торино через торрент pb.wtf

Качают: 1 [ 0 KB/s ]
Размер: 7.76 GB | Добавлен: 7 лет 1 мес. назад | Торрент скачан:54 раза
Скачать  

16-09-2013 19:40 Гран Торино Скачать торрент  

Гран Торино / Gran Torino
Год выпуска: 2008
Страна: США
Жанр: драма, криминал,
Продолжительность: 01:56:41
Перевод: Дубляж + Оригинал
Субтитры: русские английские

Режиссер: Клинт Иствуд

В ролях: Клинт Иствуд, Кристофер Карли, Би Ванг, Эни Хи, Брайан Хейли, Джеральдин Хьюз, Дрима Уолкер, Брайан Хау, Джон Кэрролл Линч,

Описание: Вышедший на пенсию автомеханик Уолт Ковальски проводит дни, починяя что-то по дому, попивая пиво и раз в месяц заходя к парикмахеру. И хотя последним желанием его недавно почившей жены было совершение им исповеди, Уолту — ожесточившемуся ветерану Корейской войны, всегда держащему свою винтовку наготове, — признаваться в общем-то не в чем. Да и нет того, кому он доверял бы в той полной мере, в какой доверяет своей собаке Дейзи.
Все те люди, коих он некогда называл своими соседями, либо переехали, либо ушли в мир иной, а на смену им пришли иммигранты-хмоны, которых он откровенно презирает. Противясь буквально всему, во что упирается его взгляд, — покосившиеся карнизы, заросшие лужайки домов и лица иностранцев повсюду; бесцельно шатающиеся шайки подростков, состоящие из хмонов, латиносов и афро-американцев, полагающих, что окрестный мир целиком принадлежит им одним; неоперившиеся чужаки, в которых оказалось превратились собственные дети и внуки, — Уолт просто неспешно проживает остаток своей жизни.
До той самой ночи, когда кто-то попытается украсть его «Гран Торино»…

Качество: BDRip 1080p
Формат: MKV
Видео кодек: H.264
Аудио кодек: AC3
Видео: (1920x800), 8244 Kbps, 23.976 fps
Аудио#1: AC-3, 6 ch, 640 kbps (Rus) 48.0 KHz Дублированный
Аудио#2: AC-3, 6 ch,640 kbps (Eng) 48.0 KHz Оригинал

Общее
Уникальный идентификатор : 186783759405869060848788269792895801136 (0x8C853E5868701D43996F566636799730)
Полное имя : Гран Торино.2008.BDRip.1080p.Rus.Eng.mkv
Формат : Matroska
Версия формата : Version 2
Размер файла : 7,76 Гбайт
Продолжительность : 1 ч. 56 м.
Общий поток : 9527 Кбит/сек
Название фильма : Гран Торино.2008
Дата кодирования : UTC 2013-09-16 14:54:13
Программа кодирования : mkvmerge v5.8.0 ('No Sleep / Pillow') built on Sep 2 2012 15:37:04
Библиотека кодирования : libebml v1.2.3 + libmatroska v1.3.0

Видео
Идентификатор : 1
Формат : AVC
Формат/Информация : Advanced Video Codec
Профиль формата : High@L4.1
Параметр CABAC формата : Да
Параметр ReFrames формата : 5 кадров
Идентификатор кодека : V_MPEG4/ISO/AVC
Продолжительность : 1 ч. 56 м.
Битрейт : 8244 Кбит/сек
Ширина : 1920 пикселей
Высота : 800 пикселей
Соотношение сторон : 2,40:1
Режим частоты кадров : Постоянный
Частота кадров : 23,976 кадра/сек
Цветовое пространство : YUV
Субдискретизация насыщенности : 4:2:0
Битовая глубина : 8 бит
Тип развёртки : Прогрессивная
Бит/(Пиксели*Кадры) : 0.224
Размер потока : 6,57 Гбайт (85%)
Заголовок : Rip by Boriy
Библиотека кодирования : x264 core 138 r2358 9e941d1
Настройки программы : cabac=1 / ref=5 / deblock=1:-3:-3 / analyse=0x3:0x113 / me=umh / subme=11 / psy=1 / psy_rd=1.00:0.00 / mixed_ref=1 / me_range=32 / chroma_me=1 / trellis=2 / 8x8dct=1 / cqm=0 / deadzone=21,11 / fast_pskip=0 / chroma_qp_offset=-2 / threads=12 / lookahead_threads=1 / sliced_threads=0 / nr=0 / decimate=0 / interlaced=0 / bluray_compat=0 / constrained_intra=0 / bframes=6 / b_pyramid=2 / b_adapt=2 / b_bias=0 / direct=3 / weightb=1 / open_gop=0 / weightp=2 / keyint=240 / keyint_min=23 / scenecut=40 / intra_refresh=0 / rc=2pass / mbtree=0 / bitrate=8244 / ratetol=1.0 / qcomp=0.60 / qpmin=0 / qpmax=69 / qpstep=4 / cplxblur=20.0 / qblur=0.5 / ip_ratio=1.40 / pb_ratio=1.30 / aq=1:0.80
Язык : English
Default : Да
Forced : Нет

Аудио #1
Идентификатор : 2
Формат : AC-3
Формат/Информация : Audio Coding 3
Расширение режима : CM (complete main)
Параметр Endianness формата : Big
Идентификатор кодека : A_AC3
Продолжительность : 1 ч. 56 м.
Вид битрейта : Постоянный
Битрейт : 640 Кбит/сек
Каналы : 6 каналов
Расположение каналов : Front: L C R, Side: L R, LFE
Частота : 48,0 КГц
Битовая глубина : 16 бит
Метод сжатия : С потерями
Размер потока : 534 Мбайт (7%)
Заголовок : Дубляж
Язык : Russian
Default : Да
Forced : Нет

Аудио #2
Идентификатор : 3
Формат : AC-3
Формат/Информация : Audio Coding 3
Расширение режима : CM (complete main)
Параметр Endianness формата : Big
Идентификатор кодека : A_AC3
Продолжительность : 1 ч. 56 м.
Вид битрейта : Постоянный
Битрейт : 640 Кбит/сек
Каналы : 6 каналов
Расположение каналов : Front: L C R, Side: L R, LFE
Частота : 48,0 КГц
Битовая глубина : 16 бит
Метод сжатия : С потерями
Размер потока : 534 Мбайт (7%)
Заголовок : Оригинал
Язык : English
Default : Нет
Forced : Нет

Текст #1
Идентификатор : 4
Формат : UTF-8
Идентификатор кодека : S_TEXT/UTF8
Идентификатор кодека/Информация : UTF-8 Plain Text
Заголовок : Forced
Язык : Russian
Default : Да
Forced : Да

Текст #2
Идентификатор : 5
Формат : UTF-8
Идентификатор кодека : S_TEXT/UTF8
Идентификатор кодека/Информация : UTF-8 Plain Text
Заголовок : Full
Язык : Russian
Default : Нет
Forced : Нет

Текст #3
Идентификатор : 6
Формат : UTF-8
Идентификатор кодека : S_TEXT/UTF8
Идентификатор кодека/Информация : UTF-8 Plain Text
Заголовок : Forced
Язык : English
Default : Нет
Forced : Нет

Текст #4
Идентификатор : 7
Формат : UTF-8
Идентификатор кодека : S_TEXT/UTF8
Идентификатор кодека/Информация : UTF-8 Plain Text
Заголовок : Full
Язык : English
Default : Нет
Forced : Нет

Меню
00:00:00.000 : :Chapter 1
00:03:54.525 : :Chapter 2
00:08:45.358 : :Chapter 3
00:13:14.126 : :Chapter 4
00:18:08.378 : :Chapter 5
00:20:57.005 : :Chapter 6
00:24:20.750 : :Chapter 7
00:28:49.060 : :Chapter 8
00:31:41.649 : :Chapter 9
00:36:18.050 : :Chapter 10
00:40:13.744 : :Chapter 11
00:43:46.290 : :Chapter 12
00:48:44.379 : :Chapter 13
00:53:55.899 : :Chapter 14
00:57:04.421 : :Chapter 15
01:01:05.662 : :Chapter 16
01:04:21.691 : :Chapter 17
01:10:43.113 : :Chapter 18
01:16:28.125 : :Chapter 19
01:20:04.758 : :Chapter 20
01:22:55.136 : :Chapter 21
01:26:14.210 : :Chapter 22
01:29:15.475 : :Chapter 23
01:33:30.062 : :Chapter 24
01:36:31.786 : :Chapter 25
01:38:41.582 : :Chapter 26
01:43:45.427 : :Chapter 27
01:46:09.112 : :Chapter 28
01:51:04.407 : :Chapter 29
01:56:34.529 : :Chapter 30

pb.wtf



Скачать Гран Торино через торрент http://pic.kartinco.top/images/3/f888r67i79.jpg Скачать фильм Гран Торино через торрент бесплантно в хорошем качестве Описание: Вышедший на пенсию автомеханик Уолт Ковальски проводит дни, починяя что-то по дому, попивая пиво и раз в месяц заходя к ... 10 10 10
Info! Золотая раздача, скачанное не засчитывается.
Торрент: Зарегистрирован [2013-09-16 19:40] · скачан: 54 раз
Статус: √ проверено
Размер: 7.76 GB
Как cкачать? Как скачать Гран Торино через торрент | qTorrent

% Раздел Тема Автор DL S | L
Фильмы 2006-2008 [ 1.38 GB ] Гран Торино / Gran Torino [2008 HDRip] Гоблин azagoth_666 Скачать
1 | 0
Фильмы [HD 720p, 1080p] (Хороший звук DUB, MVO) [ 6.99 GB ] Гран Торино / Gran Torino [2008 BDRip 720p от _denis_100 | NNNB] DUB + MVO + 4xAVO + UKR + Original + Sub _denis_100 Скачать
2 | 0
Фильмы [HD 720p, 1080p] (Хороший звук DUB, MVO) [ 8.59 GB ] Гран Торино / Gran Torino [2008 BDRip 720p] DUB MVO AVO VO potroks Скачать
1 | 0
Фильмы 2006-2008 [ 2.18 GB ] Гран Торино / Gran Torino [2008 BDRip-AVC ] Russian Mafia Скачать
1 | 0
Фильмы 2006-2008 [ 743 MB ] Гран Торино / Gran Torino [2008 Германия BDRip-AVC] Dub sokol_ok Скачать
2 | 0
Фильмы с авторской озвучкой [ 1.51 GB ] Гран Торино / Gran Torino [2008 BDRip-AVC] [AVO] killermax2013 Скачать
1 | 0
Фильмы 2006-2008 [ 1.37 GB ] Гран Торино / Gran Torino [2008 DVDRip] vocalbur Скачать
1 | 0

28-11-2019 20:33  

Отключить всю рекламу на сайте

    Дорогой пользователь! Огромная просьба, поблагодарите релизера, оцените раздачу и оставьте свои комментарий, если Вы скачали Гран Торино через торрент бесплатно! Внесите свою лепту в развитие PiratBit!
    Комментировать посты могут только пользователи прошедшие не сложную регистрацию
    Показать сообщения:    

    Гран Торино через торрент
    Скачать бесплатно Гран Торино
    Гран Торино скачать торрент
    Гран Торино смотреть онлайн
    Cкачать фильм Гран Торино бесплатно
    Гран Торино скачать торрент в хорошем качестве
    Гран Торино смотреть онлайн бесплатно в хорошем качестве


    Вы не можете начинать темы
    Вы не можете отвечать на сообщения
    Вы не можете редактировать свои сообщения
    Вы не можете удалять свои сообщения
    Вы не можете голосовать в опросах
    Вы не можете прикреплять файлы к сообщениям
    Вы можете скачивать файлы