Достать ножи: Стеклянная луковица

MVO

Добыча

Дубляж

Уэнсдэй

1 сезон

Тор

Дубляж

13 клиническая

1 сезон

Жестокая ночь

MVO

Одни из нас

1 сезон

Deluxe

pack

Рекомендуем

30

Пиратка

ВАЖНО

ВАЖНО

Ghostwire

Пиратка

jed

RePack

nioh2

RePack

RDR2

RePack

NEED FOR SPEED™ PAYBACK

RePack

скачать торрент

Кинопоиск HD

Острые козырьки 6 сезон

6 сезон

FAR CRY 6

RePack

скачать торрент

Лицензия

скачать торрент

MVO

1

1 сезон

скачать торрент

1 сезон

скачать торрент

Лицензия

  

Газетчик / The Paperboy (Ли Дэниелс) [2012 г., триллер, НDRip] Дубляж [лицензия]

Газетчик через торрент pb.wtf

Размер: 1.45 GB | Добавлен: 9 лет 4 мес. назад | Торрент скачан:300 раз
Смотреть онлайн | Скачать | Поддержите нас   

17-09-2013 10:35 Газетчик Скачать торрент  

Газетчик / The Paperboy


  • Год выпуска:2012
  • Страна:США
  • Жанр:триллер

  • Продолжительность: 01:46:45
  • Перевод:Профессиональный (полное дублирование) [лицензия]

  • Субтитры: Нет
    • Режиссер:Ли Дэниелс / Lee Daniels
    • Сценарий: Питер Декстер / Peter Dexter, Ли Дэниелс / Lee Daniels
    • Продюсер: Эд Кэйтелл III / Ed Cathell III, Ли Дэниелс / Lee Daniels, Кассиан Элвис / Cassian Elwes, Хилари Шор / Hilary Shor, Майкл Бенаройя / Michael Benaroya

  • В ролях:Мэттью МакКонахи (Ward Jansen), Зак Эфрон (Jack Jansen), Николь Кидман (Charlotte Bless), Джон Кьюсак (Hillary Van Wetter), Мейси Грэй (Anita Chester), Дэвид Ойелоуо (Yardley Acheman), Скотт Гленн (W.W. Jansen), Нед Беллами (Tyree Van Wetter), Ниалла Гордон (Ellen Guthrie), Эдрик Браун (Hustler #1), Кевин Ватерман (Victim), Дэнни Ханеманн (Sheriff Thurmond Call)
    • Описание:
      Конец 1960-х; успешный журналист Уорд расследует дерзкое убийство влиятельного шерифа-расиста в маленьком южном городке. Его цель - освободить несправедливо осуждённого и заодно сделать вместе с коллегой из Лондона сенсационный материал. Журналистам помогает юный разносчик газет Джек - родной брат Уорда, и невероятно сексапильная блондинка Шарлотта: она влюбилась по переписке в того самого заключенного из камеры смертников. Каждому из героев есть что скрывать и чего бояться - но раскалённый воздух Юга пробуждает самые тёмные и горячие желания...

  • Рейтинг
    kinopoisk.ru: 6.083 (4016)
    imdb.com: 5.70 (15 406)
    MPAA: R - Лицам до 17 лет обязательно присутствие взрослого
    • Качество:HDRip
    • Формат:AVI
    • Видео кодек: AVC
    • Аудио кодек:DTS/AC3
    • Видео: XviD, 720x304 (2.35:1), 1557 kbps, 23,976 fps, 0,297 bpp
    • Аудио: AC3 / 5.1 / 48 kHz / 384 kbps / 16 bit


    General
    Complete name : D:ТорентыGazet4ik.2012.D.HDRip.1.46GB.avi
    Format : AVI
    Format/Info : Audio Video Interleave
    File size : 1.45 GiB
    Duration : 1h 46mn
    Overall bit rate : 1 951 Kbps
    Writing application : VirtualDubModRus 1.5.10.2 (build 2542/release)
    Writing library : VirtualDubMod build 2542/release

    Video
    ID : 0
    Format : MPEG-4 Visual
    Format profile : Advanced [email protected]
    Format settings, BVOP : 2
    Format settings, QPel : No
    Format settings, GMC : No warppoints
    Format settings, Matrix : Custom
    Codec ID : XVID
    Codec ID/Hint : XviD
    Duration : 1h 46mn
    Bit rate : 1 558 Kbps
    Width : 720 pixels
    Height : 304 pixels
    Display aspect ratio : 2.35:1
    Frame rate : 23.976 fps
    Color space : YUV
    Chroma subsampling : 4:2:0
    Bit depth : 8 bits
    Scan type : Progressive
    Compression mode : Lossy
    Bits/(Pixel*Frame) : 0.297
    Stream size : 1.16 GiB (80%)
    Writing library : XviD 1.2.1 (UTC 2008-12-04)

    Audio
    ID : 1
    Format : AC-3
    Format/Info : Audio Coding 3
    Mode extension : CM (complete main)
    Codec ID : 2000
    Duration : 1h 46mn
    Bit rate mode : Constant
    Bit rate : 384 Kbps
    Channel(s) : 6 channels
    Channel positions : Front: L C R, Side: L R, LFE
    Sampling rate : 48.0 KHz
    Bit depth : 16 bits
    Compression mode : Lossy
    Stream size : 293 MiB (20%)
    Alignment : Split accross interleaves
    Interleave, duration : 42 ms (1.00 video frame)
    Interleave, preload duration : 500 ms

    • Фильм снят по мотивам романа Питера Декстера «Газетчик» (The Paperboy, 1995).
    • Роль Шарлотты, которую исполняет Николь Кидман, могла достаться Софии Вергаре.
    • Алексу Петтиферу была первому предложена роль Джека.
    • Тоби Магуайр был приглашен на роль Уорда, но отказался из-за несогласованности расписаний съемок.
    • 2 мая 2012 года было официально объявлено, что главная музыкальная тема фильма была записана певицей Мэрайей Кэри и называется «Mesmerized».
    • Педро Альмодовар некоторое время возглавлял этот проект и серьезно задумывался о том, чтобы сделать из него свой первый фильм на английском языке. В конце концов он отказался, но, как утверждают, участвовал в ранних версиях сценария.
    • еще 3 факта

    © Оформление by Vetal



  • Скачать Газетчик через торрент http://i6-imageban-ru.translate.goog/out/2013/09/17/2d8d98de3c4d1a13b5607b3ce1df52fa.jpg Скачать, смотреть онлайн Газетчик бесплантно в хорошем качестве Описание:Конец 1960-х; успешный журналист Уорд расследует дерзкое убийство влиятельного шерифа-расиста в маленьком южном городке. Его цель ... 9.4 10 19
    Info! Золотая раздача, скачанное не засчитывается.
    Торрент: Зарегистрирован [2013-09-17 10:35] · скачан: 300 раз
    Статус: √ проверено
    Размер: 1.45 GB
    Как cкачать? Как скачать Газетчик через торрент | UTorrent

    % Раздел Тема Автор DL S | L
    Фильмы [HD 720p, 1080p] (Хороший звук DUB, MVO) [ 10.13 GB ] Газетчик / The Paperboy | DUB + AVO + Original + Sub | 720p от _denis_100 | NNNB _denis_100 Скачать
    1 | 0
    Фильмы [HD 720p, 1080p] (Хороший звук DUB, MVO) [ 8.84 GB ] Газетчик / The Paperboy | DUB | 1080p Ворон Скачать
    1 | 0
    Фильмы 2012 [ 1.46 GB ] Газетчик / The Paperboy | DUB НТВ+ | Газетчик / The Paperboy (Ли Дэниелс diletant Скачать
    1 | 0
    Фильмы 2012 [ 746 MB ] Газетчик / The Paperboy | DUB НТВ+ | Газетчик / The Paperboy (Ли Дэниелс Ворон Скачать
    1 | 0
    Фильмы [HD 720p, 1080p] (Хороший звук DUB, MVO) [ 4.51 GB ] Газетчик / The Paperboy | | 720p, Дублированное [НТВ+ Lyfe Скачать
    1 | 0

    28-11-2019 20:33  


    Отключить вcю реклaмy на сайте, в т.ч. и в плеере онлайн просмотра!

      Дорогой пользователь! Огромная просьба, поблагодарите релизера, оцените раздачу и оставьте свои комментарий, если Вы скачали Газетчик через торрент бесплатно!!
      Комментировать посты могут только пользователи прошедшие не сложную регистрацию
      Показать сообщения:    


      Газетчик через торрент
      Скачать бесплатно Газетчик
      Газетчик скачать торрент
      Газетчик смотреть онлайн
      Cкачать фильм Газетчик бесплатно
      Газетчик скачать торрент в хорошем качестве
      Газетчик смотреть онлайн бесплатно в хорошем качестве
      Вы не можете начинать темы
      Вы не можете отвечать на сообщения
      Вы не можете редактировать свои сообщения
      Вы не можете удалять свои сообщения
      Вы не можете голосовать в опросах
      Вы не можете прикреплять файлы к сообщениям
      Вы можете скачивать файлы
      Газетчик / The Paperboy [2012 г., триллер, НDRip] Дубляж [лицензия] смотреть онлайн, скачать торрент picoco.icu