1 сезон

1 сезон

iTunes

1

КиноПоиск HD

Кинопоиск HD

iTunes

13

1 сезон

RePack

30

Ultimate

ВАЖНО

ИГРА 18+

pack

RePack

MK11
pack

Легкие деньги

RePack

jed

RePack

fifa19

RePack

RDR2

RePack

NEED FOR SPEED™ PAYBACK

4 сезон

9 сезон

Бесстыжие 9 сезон

Все сериалы

все сериалы на PB.wtf

RePack

FAR CRY 5
  
Magnet ссылка

Давай сделаем это по-быстрому / The Quickie (Сергей Бодров) [2001, Драма, криминал, DVDRip] MVO (R5) pb.wtf

Давай сделаем это по-быстрому через торрент pb.wtf

Размер: 1.46 GB | Добавлен: 7 лет 7 мес. назад | Торрент скачан:226 раз
Скачать  

17-09-2013 22:28 Давай сделаем это по-быстрому Скачать торрент  

Давай сделаем это по-быстрому / The Quickie

«Get in. Get out. Fast!»

  • Год выпуска:2001
  • Страна:Франция, Великобритания, Германия
  • Жанр:драма, криминал

  • Продолжительность: 01:35:13
  • Перевод:Профессиональный (многоголосый, закадровый)

  • Субтитры: Нет
    • Режиссер:Сергей Бодров
    • Сценарий: Сергей Бодров, Кэролин Кавальеро
    • Продюсер: Карл Баумгартнер / Karl Baumgartner, Сергей Бодров, Рейнхард Брюндиг / Reinhard Brundig, Кристоф Фридель / Christoph Friedel, Валерий Коган / Valery Kogan

  • В ролях:Владимир Машков (Oleg), Дженнифер Джейсон Ли (Lisa), Дин Стокуэлл (Michael), Лесли Энн Уоррен (Anna), Сергей Бодров мл. (Deema), Генри Томас (Alex), Хсу Гарсиа (Miguel), Бренда Бакки (Jane), Евгений Лазарев (Uncle Anatoly), Олег Тактаров (Boris), Уилл Кеппер (Bobby), Рэнди Лауэлл (James)
    • Описание:
      Влacть, деньги, внимание женщин, здоровье - все это у Олега присутствует в большом, даже огромном, количестве. Казалось бы, что еще нужно человеку для счастья? Его уважают, боятся, называют крестным отцом, от его слова зависят судьбы многих людей.
      Его состояние исчисляется десятками, а может и сотнями миллионов долларов. Безумные вечеринки с шикарными проститутками, игрой в русскую рулетку и швырянием пачек наличных. Он устал от такой жизни, устал от своего слишком опасного бизнеса. Он хочет отойти от дел, но российских партнеров такой расклад явно не устраивает, и это грозит ему очень серьезными последствиями.
      Олег хочет спокойной семейной жизни со своей матерью и сумасбродным младшим братом. Для этого он покупает за 20 миллионов долларов роскошную виллу в Голливуде. Так получается, что на этой вилле он знакомится с девушкой. Она не красавица, но в ней есть нечто особенное, загадочное. Это знакомство делает Олега счастливым. Ему кажется, что он встретил свою любовь, роковую любовь, которая его обязательно погубит...

  • Рейтинг
    kinopoisk.ru: 6.874 (1541)
    imdb.com: 5.70 (577)
    MPAA: R - Лицам до 17 лет обязательно присутствие взрослого
    • Качество:DVDRip
    • Формат:AVI
    • Видео кодек: XviD
    • Аудио кодек:AC3
    • Видео: XviD, 656x400 (1.640), 1732 kbps, 25 fps, 0,264 bpp
    • Аудио: AC3 / 5.1 / 48 kHz / 448 kbps / 16 bit

    General
    Complete name : D:ТорентыDavai_sdelaem_eto_po_bystromu_2001_DVDRip_by_Dalemake.avi
    Format : AVI
    Format/Info : Audio Video Interleave
    File size : 1.46 GiB
    Duration : 1h 35mn
    Overall bit rate : 2 190 Kbps
    Writing application : VirtualDubMod 1.5.10.3 | www.virtualdub-fr.org || (build 2550/release)
    Writing library : VirtualDubMod build 2550/release

    Video
    ID : 0
    Format : MPEG-4 Visual
    Format profile : Advanced Simple@L5
    Format settings, BVOP : 1
    Format settings, QPel : No
    Format settings, GMC : No warppoints
    Format settings, Matrix : Custom
    Codec ID : XVID
    Codec ID/Hint : XviD
    Duration : 1h 35mn
    Bit rate : 1 733 Kbps
    Width : 656 pixels
    Height : 400 pixels
    Display aspect ratio : 1.640
    Frame rate : 25.000 fps
    Color space : YUV
    Chroma subsampling : 4:2:0
    Bit depth : 8 bits
    Scan type : Progressive
    Compression mode : Lossy
    Bits/(Pixel*Frame) : 0.264
    Stream size : 1.15 GiB (79%)
    Writing library : XviD 73

    Audio
    ID : 1
    Format : AC-3
    Format/Info : Audio Coding 3
    Mode extension : CM (complete main)
    Codec ID : 2000
    Duration : 1h 35mn
    Bit rate mode : Constant
    Bit rate : 448 Kbps
    Channel(s) : 6 channels
    Channel positions : Front: L C R, Side: L R, LFE
    Sampling rate : 48.0 KHz
    Bit depth : 16 bits
    Compression mode : Lossy
    Stream size : 305 MiB (20%)
    Alignment : Split accross interleaves
    Interleave, duration : 40 ms (1.00 video frame)
    Interleave, preload duration : 500 ms

    © Оформление by Vetalpb.wtf



  • Скачать Давай сделаем это по-быстрому через торрент http://i5.imageban.ru/out/2013/09/18/b42523601d869712331c9c2ba9f8b7c4.png Скачать фильм Давай сделаем это по-быстрому через торрент бесплантно в хорошем качестве Описание:Влacть, деньги, внимание женщин, здоровье - все это у Олега присутствует в большом, даже огромном, количестве. Казалось бы, что ... 9.8 10 10
    Info! Золотая раздача, скачанное не засчитывается.
    Торрент: Зарегистрирован [2013-09-17 22:28] · скачан: 226 раз
    Статус: √ проверено
    Размер: 1.46 GB
    Как cкачать? Как скачать Давай сделаем это по-быстрому через торрент | UTorrent

    28-11-2019 20:33  

    Отключить всю рекламу на сайте

      Дорогой пользователь! Огромная просьба, поблагодарите релизера, оцените раздачу и оставьте свои комментарий, если Вы скачали Давай сделаем это по-быстрому через торрент бесплатно! Внесите свою лепту в развитие PiratBit!
      Комментировать посты могут только пользователи прошедшие не сложную регистрацию
      Показать сообщения:    

      Давай сделаем это по-быстрому через торрент
      Скачать бесплатно Давай сделаем это по-быстрому
      Давай сделаем это по-быстрому скачать торрент
      Давай сделаем это по-быстрому смотреть онлайн
      Cкачать фильм Давай сделаем это по-быстрому бесплатно
      Давай сделаем это по-быстрому скачать торрент в хорошем качестве
      Давай сделаем это по-быстрому смотреть онлайн бесплатно в хорошем качестве


      Вы не можете начинать темы
      Вы не можете отвечать на сообщения
      Вы не можете редактировать свои сообщения
      Вы не можете удалять свои сообщения
      Вы не можете голосовать в опросах
      Вы не можете прикреплять файлы к сообщениям
      Вы можете скачивать файлы