новый адрес пиратбит piratbit
MEGA NEWS Получи личный уникальный адрес сайта и защити себя от блокировок. Внимание количество ограничено!!!

iTunes

1+1

iTunes

мы

iTunes

1

iTunes

Чернобыль

iTunes

Ральф против интернета

Лицензия

ПШазам

Лицензия

Игра престолов

Лицензия

30
pack

ВАЖНО

!!Акция!!

Alien_RageХит недели

RePack

Resident Evil 21

ИГРА 18+

pack

RePack

Metro:Exodus

!!Акция!!

Alien_Rage

RePack

fifa19

RePack

Assassins Creed: Odyssey

RePack

NEED FOR SPEED™ PAYBACK

3 сезон

9 сезон

Бесстыжие 9 сезон

Все сериалы

все сериалы на PB.wtf

RePack

FAR CRY 5
Ребята, катастрофически не хватает 1900р. для оплаты серверов за АВГУСТ (всвязи с блокировками трафик упал в 3 раза), 1-2р., выручайте.
  

Черная серия / Série noire (Ален Корно / Alain Corneau) [1979, Франция, драма, криминал, BDRip, Профессиональный (многоголосый, закадровый) pb.wtf

Черная серия через торрент pb.wtf

Размер: 2.18 GB | Добавлен: 6 лет 1 мес. назад | Торрент скачан:57 раз
Скачать  

18-09-2013 11:04 Черная серия Скачать торрент  

Черная серия / Série noire


  • Год выпуска:1979
  • Страна:Франция
  • Жанр:драма, криминал

  • Продолжительность: 01:55:48
  • Перевод:Профессиональный (многоголосый, закадровый)

  • Субтитры: нет
    • Режиссер:Ален Корно / Alain Corneau
    • Сценарий: Жорж Перек / Georges Perec, Джим Томпсон / Jim Thompson, Ален Корно / Alain Corneau
    • Продюсер: Морис Бернар / Maurice Bernart

  • В ролях:Патрик Девэр (Franck Poupart), Мириам Буайе (Jeanne), Мари Трентиньян (Mona), Бернар Блие (Staplin), Жанна Эрвиаль (La tante), Андреас Кацулас (Andreas Tikides), Чарли Фарнель (Marcel l'inspecteur), Сэмюэл Мек (Le boxeur), Джек Джордан (L'entraineur), Фернан Куке (Le Hell's Angel)
    • Описание:
      Франк ведет скучную жизнь разъездного коммивояжера и не видит ничего, кроме парижских пригородов. Но однажды он совершает необычную сделку со старой женщиной, предложившей в обмен на его товар свою шестнадцатилетнюю племянницу Мону.
      Привязавшись к Франку, девушка предлагает ему убить свою опекуншу, чтобы завладеть ее деньгами. Предвкушая перемены в жизни, он соглашается.

  • Рейтинг
    kinopoisk.ru: 7.477 (152)
    imdb.com: 7.20 (966)

      Автор рипа: : kingsize87

    • Качество:BDRip(источник: AnryV / Blu-ray / 1080p)
    • Формат:AVI
    • Видео кодек: XviD
    • Аудио кодек:AC3
    • Видео: XviD, 720x432 (1.667), 2292 kbps, 24 fps, 0,307 bpp
    • Аудио №1: AC3 / 2.0 / 48 kHz / 192 kbps / 16 bit(RUS)
      Аудио №2: AC3 / 2.0 / 48 kHz / 192 kbps / 16 bit(ENG)


    General
    Complete name : D:ТорентыChernaya.seriya.1979.DUAL.BDRip.XviD.AC3.-HQCLUB.avi
    Format : AVI
    Format/Info : Audio Video Interleave
    Format profile : OpenDML
    File size : 2.18 GiB
    Duration : 1h 55mn
    Overall bit rate : 2 695 Kbps
    Movie name : Черная серия / Serie noire (1979) BDRip
    Director : kingsize87
    Writing application : VirtualDubMod 1.5.10.2 (build 2540/release)
    Copyright : HQCLUB
    Comment : 17.09.2013

    Video
    ID : 0
    Format : MPEG-4 Visual
    Format profile : Advanced Simple@L5
    Format settings, BVOP : 1
    Format settings, QPel : No
    Format settings, GMC : No warppoints
    Format settings, Matrix : Custom
    Codec ID : XVID
    Codec ID/Hint : XviD
    Duration : 1h 55mn
    Bit rate : 2 293 Kbps
    Width : 720 pixels
    Height : 432 pixels
    Display aspect ratio : 1.667
    Frame rate : 24.000 fps
    Color space : YUV
    Chroma subsampling : 4:2:0
    Bit depth : 8 bits
    Scan type : Progressive
    Compression mode : Lossy
    Bits/(Pixel*Frame) : 0.307
    Stream size : 1.85 GiB (85%)
    Writing library : XviD 65

    Audio #1
    ID : 1
    Format : AC-3
    Format/Info : Audio Coding 3
    Format profile : Dolby Digital
    Mode extension : CM (complete main)
    Codec ID : 2000
    Duration : 1h 55mn
    Bit rate mode : Constant
    Bit rate : 192 Kbps
    Channel(s) : 2 channels
    Channel positions : Front: L R
    Sampling rate : 48.0 KHz
    Bit depth : 16 bits
    Compression mode : Lossy
    Stream size : 159 MiB (7%)
    Alignment : Split accross interleaves
    Interleave, duration : 42 ms (1.00 video frame)
    Interleave, preload duration : 500 ms

    Audio #2
    ID : 2
    Format : AC-3
    Format/Info : Audio Coding 3
    Mode extension : CM (complete main)
    Codec ID : 2000
    Duration : 1h 55mn
    Bit rate mode : Constant
    Bit rate : 192 Kbps
    Channel(s) : 2 channels
    Channel positions : Front: L R
    Sampling rate : 48.0 KHz
    Bit depth : 16 bits
    Compression mode : Lossy
    Stream size : 159 MiB (7%)
    Alignment : Split accross interleaves
    Interleave, duration : 42 ms (1.00 video frame)
    Interleave, preload duration : 500 ms

    © Оформление by Vetalpb.wtf



  • Скачать Черная серия через торрент http://pic.kartinco.top/images/4/8pele.jpg Скачать фильм Черная серия через торрент бесплантно в хорошем качестве Описание:Франк ведет скучную жизнь разъездного коммивояжера и не видит ничего, кроме парижских пригородов. Но однажды он совершает ... 10 10 3
    Info! Золотая раздача, скачанное не засчитывается.
    Торрент: Зарегистрирован [2013-09-18 11:04] · скачан: 57 раз
    Статус: √ проверено
    Размер: 2.18 GB
    Как cкачать? Как скачать Черная серия через торрент | qTorrent


    >> Регистрируемся здесь <<






    Отзывы и комментарии о схеме читаем и пишем здесь: ---> Отзывы и комментарии о схеме

    Новые благодарочки в телеграм довольных пользователей:
    скриншот   скриншот   скриншот   скриншот   скриншот
      Дорогой пользователь! Огромная просьба, поблагодарите релизера, оцените раздачу и оставьте свои комментарий, если Вы скачали Черная серия через торрент бесплатно! Внесите свою лепту в развитие PiratBit!
      Комментировать посты могут только пользователи прошедшие не сложную регистрацию
      Показать сообщения:    

      Черная серия через торрент
      Скачать бесплатно Черная серия
      Черная серия скачать торрент
      Черная серия смотреть онлайн
      Cкачать фильм Черная серия бесплатно
      Черная серия скачать торрент в хорошем качестве
      Черная серия смотреть онлайн бесплатно в хорошем качестве


      Вы не можете начинать темы
      Вы не можете отвечать на сообщения
      Вы не можете редактировать свои сообщения
      Вы не можете удалять свои сообщения
      Вы не можете голосовать в опросах
      Вы не можете прикреплять файлы к сообщениям
      Вы можете скачивать файлы