Ссылка на приватное зеркало нашего сайта всего за 1$. Внимание количество ограничено!!!

2 сезон

iTunes

1 сезон

1

2 сезон

2 сезон

iTunes

1 сезон

RePack

30

Ultimate

ВАЖНО

ИГРА 18+

pack

RePack

MK11
pack

Забери бонус

RePack

jed

!!Акция!!

Alien_Rage

RePack

fifa19

RePack

Assassins Creed: Odyssey

RePack

NEED FOR SPEED™ PAYBACK

4 сезон

9 сезон

Бесстыжие 9 сезон

Все сериалы

все сериалы на PB.wtf

RePack

FAR CRY 5
  

Восприятие / Perception / Сезон: 1 / Серии: 1-10 (10)(Грег Биман, Кеннет Биллер, Крис Мисиано) [2012 г., Драма, криминал, детектив, WEB-DLRip]MVO(To4ka.TV)+ Original+Sub(Rus) pb.wtf

Восприятие через торрент pb.wtf

Размер: 4.4 GB | Добавлен: 7 лет 2 мес. назад | Торрент скачан:67 раз
Скачать  

19-09-2013 05:57 Восприятие Скачать торрент  

Восприятие / Perception
Год выпуска: 2012
Страна: США
Жанр: Драма, криминал, детектив,
Продолжительность: 00:45:22
Субтитры: русские, (отдельно)
Перевод: Любительский Многоголосый, закадровый (To4ka.TV)

Режиссер: Грег Биман Кеннет Биллер Крис Мисиано



В ролях: Эрик МакКормак, Рэйчел Ли Кук, Келли Роуэн, Эрджей Смит, Джонатан Скарф, Кристофер Чен, Лиза Бейнс, Джимми Беннетт, Бриджет Риган, ЛеВар Бёртон...,

Описание: Доктор Дэниел Пирс — талантливый, но эксцентричный нейрофизиолог, которого пригласили в ФБР для оказания помощи в расследовании наиболее сложных дел. Доктор Пирс работает в тесном сотрудничестве с Кейт Моретти, его бывшей студенткой, которая и завербовала его для работы с Бюро. Также в команде есть Макс Левики — ассистент доктора Пирса и Натали Винсент — его лучший друг.
Релиз:
Роли озвучивали: Андрей Хомяков, Марина Комчарукова, Ирина Грачева и Александр Нелюбин
Перевод на русский язык: "Частная Практика"
Работа с видео и рип: LegengKiev
Сведение звука: AlexWhite, Kyliknikylik

Качество: WEB-DLRip
Формат: AVI
Видео кодек: XviD
Аудио кодек: MP3
Видео: 720x400 (16:9), 23.976 fps,1 118 Kbps
Аудио#1: Русский, 128 Kbps, 48.0 KHz, 2 ch
Аудио#2: Английский, 128 Kbps, 48.0 KHz, 2 ch




General
Complete name : Perception.s01e01.WEB-DLRip.Rus.Eng.[To4ka.TV].avi
Format : AVI
Format/Info : Audio Video Interleave
File size : 450 MiB
Duration : 45mn 22s
Overall bit rate : 1 388 Kbps
Writing application : VirtualDubModRus 1.5.10.2 (build 2542/release)
Writing library : VirtualDubMod build 2542/release

Video
ID : 0
Format : MPEG-4 Visual
Format profile : Advanced Simple@L5
Format settings, BVOP : Yes
Format settings, QPel : No
Format settings, GMC : No warppoints
Format settings, Matrix : Custom
Codec ID : XVID
Codec ID/Hint : XviD
Duration : 45mn 22s
Bit rate : 1 118 Kbps
Width : 720 pixels
Height : 400 pixels
Display aspect ratio : 16:9
Frame rate : 23.976 fps
Color space : YUV
Chroma subsampling : 4:2:0
Bit depth : 8 bits
Scan type : Progressive
Bits/(Pixel*Frame) : 0.162
Stream size : 363 MiB (81%)
Writing library : XviD 73

Audio #1
ID : 1
Format : MPEG Audio
Format version : Version 1
Format profile : Layer 3
Mode : Joint stereo
Mode extension : MS Stereo
Codec ID : 55
Codec ID/Hint : MP3
Duration : 45mn 22s
Bit rate mode : Constant
Bit rate : 128 Kbps
Channel(s) : 2 channels
Sampling rate : 48.0 KHz
Stream size : 41.5 MiB (9%)
Alignment : Aligned on interleaves
Interleave, duration : 42 ms (1.00 video frame)
Interleave, preload duration : 504 ms

Audio #2
ID : 2
Format : MPEG Audio
Format version : Version 1
Format profile : Layer 3
Mode : Joint stereo
Mode extension : MS Stereo
Codec ID : 55
Codec ID/Hint : MP3
Duration : 45mn 22s
Bit rate mode : Constant
Bit rate : 128 Kbps
Channel(s) : 2 channels
Sampling rate : 48.0 KHz
Stream size : 41.5 MiB (9%)
Alignment : Split accross interleaves
Interleave, duration : 42 ms (1.00 video frame)
Interleave, preload duration : 500 ms


Восприятие скачать торрент


pb.wtf



Скачать Восприятие через торрент http://pic.kartinco.top/images/4/4ck7n.jpg Скачать фильм Восприятие через торрент бесплантно в хорошем качестве Описание: Доктор Дэниел Пирс — талантливый, но эксцентричный нейрофизиолог, которого пригласили в ФБР для оказания помощи в расследовании ... 8.6 10 5
Info! Золотая раздача, скачанное не засчитывается.
Торрент: Зарегистрирован [2013-09-19 05:57] · скачан: 67 раз
Статус: √ проверено
Размер: 4.4 GB
Как cкачать? Как скачать Восприятие через торрент | qTorrent

% Раздел Тема Автор DL S | L
Зарубежные сериалы [ 14.16 GB ] Восприятие / Perception [2014 WEB-DLRip 720p]MVO+Original Assasinca Скачать
1 | 0
Зарубежные сериалы [ 23.8 GB ] Восприятие / Perception / Сезон: 2 / Серии 1-14 из 14 [ 2013 WEB-DL1080 ] MVO GEKADOL Скачать
1 | 0
Зарубежные сериалы [ 2.2 GB ] Восприятие / Perception / Сезон: 1 / Серии: 5 [2012 WEB-DLRip] MVO wekotila Скачать
1 | 0

28-11-2019 20:33  

Отключить всю рекламу на сайте

19-09-2013 06:07 Восприятие Скачать торрент  

Assasinca писал(а):

Перевод: Любительский Многоголосый, закадровый (To4ka.TV)

Указывать обязательно.pb.wtf



19-09-2013 06:43 Восприятие Скачать торрент  

Messa-fan писал(а):

Assasinca писал(а):

Перевод: Любительский Многоголосый, закадровый (To4ka.TV)

Указывать обязательно.

А где не указано? pb.wtf



19-09-2013 06:44 Восприятие Скачать торрент  

Assasinca писал(а):

Messa-fan писал(а):

Assasinca писал(а):

Перевод: Любительский Многоголосый, закадровый (To4ka.TV)

Указывать обязательно.

А где не указано?

Я уже сам у вас исправил.pb.wtf



19-09-2013 06:45 Восприятие Скачать торрент  

спасибо, пропустилаpb.wtf



    Дорогой пользователь! Огромная просьба, поблагодарите релизера, оцените раздачу и оставьте свои комментарий, если Вы скачали Восприятие через торрент бесплатно! Внесите свою лепту в развитие PiratBit!
    Комментировать посты могут только пользователи прошедшие не сложную регистрацию
    Показать сообщения:    

    Восприятие через торрент
    Скачать бесплатно Восприятие
    Восприятие скачать торрент
    Восприятие смотреть онлайн
    Cкачать фильм Восприятие бесплатно
    Восприятие скачать торрент в хорошем качестве
    Восприятие смотреть онлайн бесплатно в хорошем качестве


    Вы не можете начинать темы
    Вы не можете отвечать на сообщения
    Вы не можете редактировать свои сообщения
    Вы не можете удалять свои сообщения
    Вы не можете голосовать в опросах
    Вы не можете прикреплять файлы к сообщениям
    Вы можете скачивать файлы