Ссылка на приватное зеркало нашего сайта всего за 1$. Внимание количество ограничено!!!

2 сезон

iTunes

1 сезон

1

2 сезон

2 сезон

iTunes

1 сезон

RePack

30

Новинка

ВАЖНО

ИГРА 18+

pack

RePack

MK11
pack

Забери бонус

RePack

jed

!!Акция!!

Alien_Rage

RePack

fifa19

RePack

Assassins Creed: Odyssey

RePack

NEED FOR SPEED™ PAYBACK

4 сезон

9 сезон

Бесстыжие 9 сезон

Все сериалы

все сериалы на PB.wtf

RePack

FAR CRY 5
  

Герой Тай-цзи / Tai Chi Hero (Стивен Фанг) [2012 г., боевик, приключения, BDRip 720p, DVO+ Original] pb.wtf

Герой Тай-цзи через торрент pb.wtf

Размер: 6.54 GB | Добавлен: 7 лет 2 мес. назад | Торрент скачан:156 раз
Скачать  

19-09-2013 12:25 Герой Тай-цзи Скачать торрент  

Герой Тай-цзи / Tai Chi Hero
Год выпуска: 2012
Страна: Китай
Жанр: боевик, приключения,
Продолжительность: 01:42:36
Перевод: Любительский двухголосый (закадровый)

Режиссер: Стивен Фанг

Бюджет: $40 000 000



В ролях: Стивен Фанг, Юань Сяочао, Юэнь Бьяо, Тони Люн Ка Фай, Эдди Пэн, Шу Ци, Дэниэл Ву, Стэнли Фунг, Пьер Бурдо, Пол Филип Кларк, Кеони Эверингтон, Анджела Бейби,

Описание: Ян и Юньян женятся, Ян постигает все тайны единоборств, но Фан, изгнанный с позором из деревни, возвращается с целой армией европейских наемников, чтобы изгнать жителей и проложить железную дорогу. Всей жителям предстоит объединиться, чтобы победить, а Ян должен проявить свои фантастические способности умноженные на новое знание чтобы прославиться и стать героем!
Релиз :

Доп. информация: Продолжение Tai Chi О

Качество: BDRip 720p
Формат: MKV
Видео кодек: AVC
Аудио кодек: DTS
Видео: 1280x546 (2.35:1), 23.976 fps, 6 108 Kbps
Аудио#1: Русский, 1 510 Kbps, 48.0 KHz, 6 ch
Аудио#2: Chinese 1 510 Kbps, 48.0 KHz, 6 ch




General
Complete name : 2012_TaiChi_Hero.mkv
Format : Matroska
File size : 6.54 GiB
Duration : 1h 42mn
Overall bit rate : 9 128 Kbps
Encoded date : UTC 2012-12-30 07:48:58
Writing application : mkvmerge v2.4.1 ('Use Me') built on Dec 5 2008 18:30:05
Writing library : libebml v0.7.7 + libmatroska v0.8.1

Video
ID : 1
Format : AVC
Format/Info : Advanced Video Codec
Format profile : High@L4.1
Format settings, CABAC : Yes
Format settings, ReFrames : 10 frames
Format settings, GOP : M=7, N=32
Muxing mode : Container profile=Unknown@4.1
Codec ID : V_MPEG4/ISO/AVC
Duration : 1h 42mn
Bit rate : 6 108 Kbps
Width : 1 280 pixels
Height : 546 pixels
Display aspect ratio : 2.35:1
Frame rate : 23.976 fps
Color space : YUV
Chroma subsampling : 4:2:0
Bit depth : 8 bits
Scan type : Progressive
Bits/(Pixel*Frame) : 0.365
Stream size : 4.25 GiB (65%)
Writing library : x264 core 128 r2216 198a7ea
Encoding settings : cabac=1 / ref=10 / deblock=1:-3:-3 / analyse=0x3:0x113 / me=umh / subme=10 / psy=1 / psy_rd=1.10:0.10 / mixed_ref=1 / me_range=32 / chroma_me=1 / trellis=2 / 8x8dct=1 / cqm=0 / deadzone=21,11 / fast_pskip=0 / chroma_qp_offset=-2 / threads=12 / lookahead_threads=2 / sliced_threads=0 / nr=0 / decimate=1 / interlaced=0 / bluray_compat=0 / constrained_intra=0 / bframes=6 / b_pyramid=2 / b_adapt=2 / b_bias=0 / direct=3 / weightb=1 / open_gop=0 / weightp=2 / keyint=250 / keyint_min=23 / scenecut=40 / intra_refresh=0 / rc_lookahead=40 / rc=2pass / mbtree=0 / bitrate=6108 / ratetol=1.0 / qcomp=0.60 / qpmin=0 / qpmax=69 / qpstep=4 / cplxblur=20.0 / qblur=0.5 / vbv_maxrate=40000 / vbv_bufsize=30000 / nal_hrd=none / ip_ratio=1.40 / pb_ratio=1.30 / aq=1:0.90
Language : Chinese

Audio #1
ID : 2
Format : DTS
Format/Info : Digital Theater Systems
Codec ID : A_DTS
Duration : 1h 42mn
Bit rate mode : Constant
Bit rate : 1 510 Kbps
Channel(s) : 6 channels
Channel positions : Front: L C R, Side: L R, LFE
Sampling rate : 48.0 KHz
Bit depth : 24 bits
Stream size : 1.08 GiB (17%)
Title : Russian DTS 5.1 1509Kbps
Language : Russian

Audio #2
ID : 3
Format : DTS
Format/Info : Digital Theater Systems
Codec ID : A_DTS
Duration : 1h 42mn
Bit rate mode : Constant
Bit rate : 1 510 Kbps
Channel(s) : 6 channels
Channel positions : Front: L C R, Side: L R, LFE
Sampling rate : 48.0 KHz
Bit depth : 24 bits
Video delay : 11ms
Stream size : 1.08 GiB (17%)
Title : Mandarin DTS 5.1 1509Kbps
Language : Chinese


Tai Chi Hero скачать торрент


pb.wtf



Скачать Герой Тай-цзи через торрент http://pic.kartinco.top/images/4/rqaft.jpg Скачать фильм Герой Тай-цзи через торрент бесплантно в хорошем качестве Описание: Ян и Юньян женятся, Ян постигает все тайны единоборств, но Фан, изгнанный с позором из деревни, возвращается с целой армией ... 8.9 10 9
Info! Золотая раздача, скачанное не засчитывается.
Торрент: Зарегистрирован [2013-09-19 12:25] · скачан: 156 раз
Статус: √ проверено
Размер: 6.54 GB
Как cкачать? Как скачать Герой Тай-цзи через торрент | qTorrent

% Раздел Тема Автор DL S | L
Азиатские фильмы [ 1.37 GB ] Тай-цзи: Герой / Tai Chi Hero [2012 HDRipMVO [] Ворон Скачать
1 | 0
T Азиатские фильмы [ 1.48 GB ] Тай-цзи: Герой / Tai Chi Hero [2012 HDRip DVO[den904 и DeadSno]] lev1244v Скачать
1 | 0

28-11-2019 20:33  

Отключить всю рекламу на сайте

    Дорогой пользователь! Огромная просьба, поблагодарите релизера, оцените раздачу и оставьте свои комментарий, если Вы скачали Герой Тай-цзи через торрент бесплатно! Внесите свою лепту в развитие PiratBit!
    Комментировать посты могут только пользователи прошедшие не сложную регистрацию
    Показать сообщения:    

    Герой Тай-цзи через торрент
    Скачать бесплатно Герой Тай-цзи
    Герой Тай-цзи скачать торрент
    Герой Тай-цзи смотреть онлайн
    Cкачать фильм Герой Тай-цзи бесплатно
    Герой Тай-цзи скачать торрент в хорошем качестве
    Герой Тай-цзи смотреть онлайн бесплатно в хорошем качестве


    Вы не можете начинать темы
    Вы не можете отвечать на сообщения
    Вы не можете редактировать свои сообщения
    Вы не можете удалять свои сообщения
    Вы не можете голосовать в опросах
    Вы не можете прикреплять файлы к сообщениям
    Вы можете скачивать файлы