MEGA SALE -50% FORZA HORIZON 4 ULTIMATE+ВСЕ DLC+ОНЛАЙН всего за 599р. 299 руб. (супер цена). Внимание количество ограничено!!!

iTunes

1+1

iTunes

мы

iTunes

1

iTunes

Чернобыль

iTunes

Ральф против интернета

Лицензия

ПШазам

Лицензия

Игра престолов

Лицензия

30
pack

ВАЖНО

!!Акция!!

Alien_RageХит недели

RePack

Resident Evil 21

ИГРА 18+

pack

RePack

Metro:Exodus

!!Акция!!

Alien_Rage

RePack

fifa19

RePack

Assassins Creed: Odyssey

RePack

NEED FOR SPEED™ PAYBACK

3 сезон

9 сезон

Бесстыжие 9 сезон

Все сериалы

все сериалы на PB.wtf

RePack

FAR CRY 5
Ребята, катастрофически не хватает 7730р. для оплаты серверов за АВГУСТ (всвязи с блокировками трафик упал в 3 раза), 1-2р., выручайте.
  

Семейка Крудс в 3D/ The Croods in 3D (Кирк де Микко, Крис Сандерс) [2013 г., мультфильм, комедия, приключения, семейный, BDRip 1080p, Дубляж, Лицензия] Анаглиф (Дюбуа) pb.wtf

Семейка Крудс в 3D через торрент pb.wtf

Размер: 10.09 GB | Добавлен: 5 лет 11 мес. назад | Торрент скачан:187 раз
Скачать  

20-09-2013 10:16 Семейка Крудс в 3D Скачать торрент  

Семейка Крудс в 3D/ The Croods in 3D

Год выпуска: 2013
Страна: США
Жанр: мультфильм, комедия, приключения, семейный
Продолжительность: 01:38:36
Перевод: Профессиональный (полное дублирование) [лицензия]
Субтитры: Английские

Режиссер: Кирк де Микко / Kirk De Micco, Крис Сандерс / Chris Sanders

В ролях: Николас Кейдж (Grug, озвучка,), Эмма Стоун (Eep, озвучка), Райан Рейнольдс (Guy, озвучка), Кэтрин Кинер (Ugga, озвучка), Клорис Личмен (Gran, озвучка), Кларк Дьюк (Thunk, озвучка), Крис Сандерс (Belt, озвучка)

Роли дублировали: Дмитрий Назаров, Нюша Шурочкина, Егор Дружинин, Александра Назарова, Руслан Мещанов

Описание: Землетрясение уничтожило дом доисторической семьи, и теперь Крудсам придётся искать другое пристанище. А вокруг новый и опасный мир! Им на помощь приходит молодой кочевник Малой, передовые взгляды которого наталкиваются на консервативность главы семьи Груга. Но только вместе они смогут выжить и достичь своей цели...

Формат 3D: Анаглиф (Дюбуа)





Качество: BDRip 1080p
Формат: MKV
Видео кодек: H.264
Аудио кодек: AC3
Видео: AVC, 1920 х 1080 / 23,976 fps, (16:9) / 13,5 Мбит/сек, (0.271 bit/pixel)
Аудио 1: русский / AC3 / 5.1 / 48 kHz / 448 kbps / 16 bit
Аудио 2: английский / AC3 / 5.1 / 48 kHz / 448 kbps / 16 bit



скриншот   скриншот   скриншот   скриншот   скриншот  
Общее
Уникальный идентификатор : 229075184949914542487500979102902701561 (0xAC56469C36506AE1AE064E549C64CDF9)
Полное имя : D: The Croods 2013.3D.BDRip.1080p(Anaglyph_Dubois).mkv
Формат : Matroska
Версия формата : Version 4 / Version 2
Размер файла : 10,1 Гбайт
Продолжительность : 1 ч. 38 м.
Общий поток : 14,6 Мбит/сек
Название фильма : Семейка Крудс / The Croods 2013.D.3D.BDRip.1080p(Anaglyph_Dubois)
Дата кодирования : UTC 2013-09-20 08:10:29
Программа кодирования : mkvmerge v6.2.0 ('Promised Land') built on Apr 28 2013 12:22:01
Библиотека кодирования : libebml v1.3.0 + libmatroska v1.4.0

Видео
Идентификатор : 1
Формат : AVC
Формат/Информация : Advanced Video Codec
Профиль формата : Baseline@L4.0
Параметр CABAC формата : Нет
Параметр ReFrames формата : 1 кадр
Идентификатор кодека : V_MPEG4/ISO/AVC
Продолжительность : 1 ч. 38 м.
Битрейт : 13,5 Мбит/сек
Ширина : 1920 пикселей
Высота : 1080 пикселей
Соотношение сторон : 16:9
Режим частоты кадров : Постоянный
Частота кадров : 23,976 кадра/сек
Цветовое пространство : YUV
Субдискретизация насыщенности : 4:2:0
Битовая глубина : 8 бит
Тип развёртки : Прогрессивная
Бит/(Пиксели*Кадры) : 0.271
Размер потока : 9,27 Гбайт (92%)
Заголовок : The Croods 2013.D.3D.BDRip.1080p(Anaglyph_Dubois).mkv
Библиотека кодирования : x264 core 125 r2200bm 999b753
Настройки программы : cabac=0 / ref=1 / deblock=0:0:0 / analyse=0:0 / me=dia / subme=0 / psy=1 / psy_rd=1.00:0.00 / mixed_ref=0 / me_range=16 / chroma_me=1 / trellis=0 / 8x8dct=0 / cqm=0 / deadzone=21,11 / fast_pskip=1 / chroma_qp_offset=0 / threads=3 / lookahead_threads=1 / sliced_threads=0 / nr=0 / decimate=1 / interlaced=0 / bluray_compat=0 / constrained_intra=0 / bframes=0 / weightp=0 / keyint=250 / keyint_min=23 / scenecut=0 / intra_refresh=0 / rc=crf / mbtree=0 / crf=18.5 / qcomp=0.60 / qpmin=0 / qpmax=69 / qpstep=4 / ip_ratio=1.40 / aq=0
Язык : English
Default : Да
Forced : Нет

Аудио #1
Идентификатор : 2
Формат : AC-3
Формат/Информация : Audio Coding 3
Расширение режима : CM (complete main)
Параметр Endianness формата : Big
Идентификатор кодека : A_AC3
Продолжительность : 1 ч. 38 м.
Вид битрейта : Постоянный
Битрейт : 448 Кбит/сек
Каналы : 6 каналов
Расположение каналов : Front: L C R, Side: L R, LFE
Частота : 48,0 КГц
Битовая глубина : 16 бит
Метод сжатия : С потерями
Задержка видео : -125 мс.
Размер потока : 316 Мбайт (3%)
Заголовок : RUS
Язык : Russian
Default : Да
Forced : Да

Аудио #2
Идентификатор : 3
Формат : AC-3
Формат/Информация : Audio Coding 3
Расширение режима : CM (complete main)
Параметр Endianness формата : Big
Идентификатор кодека : A_AC3
Продолжительность : 1 ч. 38 м.
Вид битрейта : Постоянный
Битрейт : 448 Кбит/сек
Каналы : 6 каналов
Расположение каналов : Front: L C R, Side: L R, LFE
Частота : 48,0 КГц
Битовая глубина : 16 бит
Метод сжатия : С потерями
Задержка видео : -125 мс.
Размер потока : 316 Мбайт (3%)
Язык : English
Default : Нет
Forced : Нет

Текст
Идентификатор : 4
Формат : PGS
Режим смешивания : zlib
Идентификатор кодека : S_HDMV/PGS
Идентификатор кодека/Информация : The same subtitle format used on BDs/HD-DVDs
Язык : English
Default : Нет
Forced : Нет

Меню
00:00:00.000 : en:00:00:00.000
00:02:34.988 : en:00:02:34.988
00:04:51.750 : en:00:04:51.750
00:09:01.249 : en:00:09:01.249
00:12:21.115 : en:00:12:21.115
00:14:04.802 : en:00:14:04.802
00:18:33.029 : en:00:18:33.029
00:21:56.982 : en:00:21:56.982
00:23:24.737 : en:00:23:24.737
00:26:49.775 : en:00:26:49.775
00:28:37.132 : en:00:28:37.132
00:30:25.657 : en:00:30:25.657
00:32:48.633 : en:00:32:48.633
00:36:03.370 : en:00:36:03.370
00:38:33.561 : en:00:38:33.561
00:41:34.534 : en:00:41:34.534
00:44:38.843 : en:00:44:38.843
00:48:02.630 : en:00:48:02.630
00:52:10.961 : en:00:52:10.961
00:55:17.481 : en:00:55:17.481
01:00:14.778 : en:01:00:14.778
01:03:58.084 : en:01:03:58.084
01:05:48.736 : en:01:05:48.736
01:08:44.037 : en:01:08:44.037
01:10:47.285 : en:01:10:47.285
01:12:37.144 : en:01:12:37.144
01:14:01.646 : en:01:14:01.646
01:19:48.575 : en:01:19:48.575
01:23:09.860 : en:01:23:09.860
01:25:16.737 : en:01:25:16.737
01:28:04.321 : en:01:28:04.321
01:30:02.230 : en:01:30:02.230

pb.wtf



Скачать Семейка Крудс в 3D через торрент http://pic.kartinco.top/images/4/z97sf.jpg Скачать фильм Семейка Крудс в 3Dчерез торрент бесплантно в хорошем качестве Описание: Землетрясение уничтожило дом доисторической семьи, и теперь Крудсам придётся искать другое пристанище. А вокруг новый и опасный ... 9.8 10 11
Info! Золотая раздача, скачанное не засчитывается.
Торрент: Зарегистрирован [2013-09-20 10:16] · скачан: 187 раз
Статус: √ проверено
Размер: 10.09 GB
Как cкачать? Как скачать Семейка Крудс в 3D через торрент | qTorrent


>> Регистрируемся здесь <<






Отзывы и комментарии о схеме читаем и пишем здесь: ---> Отзывы и комментарии о схеме

Новые благодарочки в телеграм довольных пользователей:
скриншот   скриншот   скриншот   скриншот   скриншот

29-11-2013 16:37 Семейка Крудс в 3D Скачать торрент  

а что с изображением,какое то всё чёрно-белое?pb.wtf



    Дорогой пользователь! Огромная просьба, поблагодарите релизера, оцените раздачу и оставьте свои комментарий, если Вы скачали Семейка Крудс в 3D через торрент бесплатно! Внесите свою лепту в развитие PiratBit!
    Комментировать посты могут только пользователи прошедшие не сложную регистрацию
    Показать сообщения:    

    Семейка Крудс в 3D через торрент
    Скачать бесплатно Семейка Крудс в 3D
    Семейка Крудс в 3D скачать торрент
    Семейка Крудс в 3D смотреть онлайн
    Cкачать фильм Семейка Крудс в 3D бесплатно
    Семейка Крудс в 3D скачать торрент в хорошем качестве
    Семейка Крудс в 3D смотреть онлайн бесплатно в хорошем качестве


    Вы не можете начинать темы
    Вы не можете отвечать на сообщения
    Вы не можете редактировать свои сообщения
    Вы не можете удалять свои сообщения
    Вы не можете голосовать в опросах
    Вы не можете прикреплять файлы к сообщениям
    Вы можете скачивать файлы