1 сезон

3 сезон

iTunes

1

Line

MVO

iTunes

13

1 сезон

RePack

30

Deluxe

pack

Лицензия

ВАЖНО

ИГРА 18+

pack

RePack

MK11

RePack

jed

RePack

fifa19

RePack

RDR2

RePack

NEED FOR SPEED™ PAYBACK

4 сезон

9 сезон

Бесстыжие 9 сезон

Все сериалы

все сериалы на PB.wtf

RePack

FAR CRY 5

Anonymous, доброй ночи, мы катастрофически не успеваем собрать деньги на оплату серверов, помогите нам пожалуйста 5,10,15р., для нас важна любая помощь . В качестве благодарности мы отключим Вам всю рекламу на сайте (укажите свой ник в строку Ваше имя)!

×
  
Magnet ссылка

Византия / Byzantium (Нил Джордан / Neil Jordan) [2013, ужасы, фэнтези, триллер, драма, DVD9] R5 pb.wtf

Скачать  

12-09-2013 06:21 Византия Скачать торрент  


Византия / Byzantium
«Нет связи крепче, чем узы крови»
Страна: Великобритания, США, Ирландия
Студия: Demarest Films, Lip Sync Productions, Number 9 Films, Parallel Film Productions Ltd., WestEnd Films
Жанр: ужасы, фэнтези, триллер, драма
Год выпуска: 2013
Мировая премьера: 9 сентября 2012
Российская премьера: 1 августа 2013
Дата выхода DVD: 10 сентября 2013
Дата выхода Blu-Ray: 10 сентября 2013
Продолжительность: 01:58:07
Перевод: Профессиональный (дублированный) [Лицензия]
Cубтитры: нет
Оригинальная аудиодорожка: нет
Режиссер: Нил Джордан / Neil Jordan
В ролях: Сирша Ронан, Джемма Артертон, Сэм Райли, Калеб Лэндри Джонс, Дэниэл Мейс, Джонни Ли Миллер, Туре Линдхардт, Ури Гавриел, Мария Дойл Кеннеди, Кэролайн Джонс...
Описание: История партнёрства вампиров — матери и дочери, которые выдают себя за сестёр.
Бонусы: нет

Релиз группы:
Качество: DVD9 R5
Формат: DVD-Video
Видео кодек: MPEG2
Аудио кодек: AC3
Видео: PAL 16:9 (720x576(0.587)) MPEG Video, 25,000 кадр/сек, 6081 Кбит/сек
Аудио: Russian (Dolby AC3, 6 ch) 448 Кбит/сек, 48,0 КГц



Title: Vizantiya.2012.DVD9
Size: 5.28 Gb ( 5 541 220,00 KBytes ) - DVD-9
Enabled regions: 1, 2, 3, 4, 5, 6, 7, 8

VTS_01 :
Play Length: 01:53:23
Video: PAL 16:9 (720x576) VBR, Auto Letterboxed
Audio:
Russian (Dolby AC3, 6 ch)

VTS_02 :
Play Length: 00:00:08
Video: PAL 4:3 (720x576) VBR

VTS_03 :
Play Length: 00:00:21
Video: PAL 16:9 (720x576) VBR, Auto Letterboxed
Audio:
English (Dolby AC3, 2 ch)

* Menus Information *

VIDEO_TS Menu
Video:
PAL 16:9 (720x576) VBR
Auto Letterboxed
Audio:
Not specified (Dolby AC3, 2 ch)
Russian Language Unit :
Title Menu

VTS_01 Menu
Video:
PAL 16:9 (720x576) VBR
Auto Letterboxed
Audio:
Not specified (Dolby AC3, 2 ch)
Russian Language Unit :
Root Menu
Chapter (PTT) Menu

VTS_02 Menu
Video:
NTSC 4:3 (720x480) VBR
Auto Pan&Scan, Auto Letterboxed
Language Unit :
Subpicture Menu
Angle menu
Language Unit :

Language Unit :
Audio Menu
Chapter (PTT) Menu
Language Unit :

Language Unit :
Audio Menu
Chapter (PTT) Menu

VTS_03 Menu
Video:
NTSC 4:3 (720x480) VBR
Auto Pan&Scan, Auto Letterboxed
Language Unit :
Subpicture Menu
Angle menu
Language Unit :
Subpicture Menu
Angle menu
Language Unit :
Subpicture Menu
Angle menu
Language Unit :
Subpicture Menu
Angle menu
Language Unit :
Subpicture Menu
Angle menu
Общее
Полное имя : M:Новинки 2013Vizantiya.2012.DVD9VIDEO_TSVTS_01_1.VOB
Формат : MPEG-PS
Размер файла : 1024 Мбайт
Продолжительность : 21 м.
Режим общего битрейта : Переменный
Общий поток : 6662 Кбит/сек

Видео
Идентификатор : 224 (0xE0)
Формат : MPEG Video
Версия формата : Version 2
Профиль формата : Main@Main
Параметр BVOP формата : Да
Параметр матрицы формата : Выборочная
Параметр GOP формата : M=3, N=15
Продолжительность : 21 м.
Вид битрейта : Переменный
Битрейт : 6081 Кбит/сек
Максимальный битрейт : 8000 Кбит/сек
Ширина : 720 пикселей
Высота : 576 пикселей
Соотношение сторон : 16:9
Частота кадров : 25,000 кадров/сек
Стандарт вещания : PAL
Цветовое пространство : YUV
Субдискретизация насыщенности : 4:2:0
Битовая глубина : 8 бит
Тип развёртки : Чересстрочная
Порядок развёртки : Верхнее поле первое
Метод сжатия : С потерями
Бит/(Пиксели*Кадры) : 0.587
TimeCode_FirstFrame : 00:00:00:00
TimeCode_Source : Group of pictures header
Размер потока : 935 Мбайт (91%)

Аудио
Идентификатор : 189 (0xBD)-128 (0x80)
Формат : AC-3
Формат/Информация : Audio Coding 3
Расширение режима : CM (complete main)
Параметр Endianness формата : Big
Режим смешивания : DVD-Video
Продолжительность : 21 м.
Вид битрейта : Постоянный
Битрейт : 448 Кбит/сек
Каналы : 6 каналов
Расположение каналов : Front: L C R, Side: L R, LFE
Частота : 48,0 КГц
Битовая глубина : 16 бит
Метод сжатия : С потерями
Размер потока : 68,8 Мбайт (7%)










pb.wtf



Торрент не зареган: Не зарегистрирован ||
Добавлен: 2013-09-21 10:51
Скачано: 117 раз  [ Список скачавших ]

28-11-2019 20:33  

Отключить всю рекламу на сайте


    Дорогой пользователь! Огромная просьба, поблагодарите релизера, оцените раздачу и оставьте свои комментарий, если Вы скачали Византия через торрент бесплатно! Внесите свою лепту в развитие PiratBit!
    Комментировать посты могут только пользователи прошедшие не сложную регистрацию
    Показать сообщения:    

    Византия через торрент
    Скачать бесплатно Византия
    Византия скачать торрент
    Византия смотреть онлайн
    Cкачать фильм Византия бесплатно
    Византия скачать торрент в хорошем качестве
    Византия смотреть онлайн бесплатно в хорошем качестве


    Вы не можете начинать темы
    Вы не можете отвечать на сообщения
    Вы не можете редактировать свои сообщения
    Вы не можете удалять свои сообщения
    Вы не можете голосовать в опросах
    Вы не можете прикреплять файлы к сообщениям
    Вы можете скачивать файлы