Ссылка на приватное зеркало нашего сайта всего за 1$. Внимание количество ограничено!!!

2 сезон

iTunes

1 сезон

1

iTunes

iTunes

iTunes

1 сезон

RePack

30

ИГРА 18+

pack

ВАЖНО

!!Акция!!

Alien_RageХит недели

RePack

MK11
pack

Забери бонус

RePack

jed

!!Акция!!

Alien_Rage

RePack

fifa19

RePack

Assassins Creed: Odyssey

RePack

NEED FOR SPEED™ PAYBACK

4 сезон

9 сезон

Бесстыжие 9 сезон

Все сериалы

все сериалы на PB.wtf

RePack

FAR CRY 5
  

Тупой и еще тупее / Dumb & Dumber (Питер Фаррелли / Peter Farrelly, Бобби Фаррелли / Bobby Farrelly) [ 1994 , США , комедия , BDRip 1080р ] Профессиональный (многоголосый, закадровый)(НТВ) pb.wtf

Тупой и еще тупее через торрент pb.wtf

Размер: 11.53 GB | Добавлен: 7 лет 1 мес. назад | Торрент скачан:34 раза
Скачать  

21-09-2013 14:38 Тупой и еще тупее Скачать торрент  

Тупой и еще тупее / Dumb & DumberГод выпуска: 1994
Страна: США
Жанр: комедия

Продолжительность: 01:52:50
Перевод: Профессиональный (двухголосый, закадровый) Гланц и Королёва
Профессиональный (многоголосый, закадровый)(НТВ)
Авторский (Визгунов Сергей)
Авторский (Гаврилов Андрей)
Авторский (Сербин Юрий)
Оригинальный
Субтитры: Русские Английские
Режиссер: Питер Фаррелли / Peter Farrelly, Бобби Фаррелли / Bobby Farrelly
В ролях: Джим Керри (Lloyd Christmas), Джефф Дэниелс (Harry Dunne), Лорен Холли (Mary Swanson), Майк Старр (Joe Mentalino), Карен Даффи (J.P. Shay), Чарльз Роккет (Nicholas Andre), Виктория Роуэлл (Athletic Beauty), Джо Бэйкер (Barnard), Хэнк Брандт (Karl Swanson), Тери Гарр (Helen Swanson), Брэйди Блум (Billy), Кэм Нили (Sea Bass)
Описание: Два полных придурка, Ллойд Крисмас и Харри Данн пытаются нагнать красивую девушку Мэри Суонсон, чтобы вручить ей потерянный ею чемоданчик-дипломат. Кретинам невдомек, что Мэри обронила его специально, в качестве выкупа по договоренности с бандитами, похитившими ее мужа.
Ведь внутри лежит кругленькая сумма. На мохнатой машине уникальной марки «Овчарка» двое идиотов пересекают Америку от Род-Айленда до Колорадо, где и находят обворожительную Мэри, в которую Ллойд уже успел втюриться без памяти.

Качество: BDRip 1080р
Формат: MKV
Видео кодек: AVC
Аудио кодек: AC3
Видео: AVC, 1920x1078 (16:9), 12345 kbps, 23,976 fps, 0,249 bpp
Аудио №1: русский / AC3 / 5.1 / 48 kHz / 448 kbps / 16 bit || Профессиональный (двухголосый закадровый) (Пётр Гланц)
Аудио №2: русский / AC3 / 2.0 / 48 kHz / 192 kbps / 16 bit || Профессиональный (многоголосый, закадровый)(НТВ)
Аудио №3: русский / AC3 / 2.0 / 48 kHz / 192 kbps / 16 bit || Авторский (одноголосый) (С.Визгунов)
Аудио №4: русский / AC3 / 2.0 / 48 kHz / 192 kbps / 16 bit || Авторский (одноголосый) (Ю.Сербин)
Аудио №5: русский / AC3 / 5.1 / 48 kHz / 640 kbps / 16 bit || Авторский (одноголосый) (А.Гаврилов)
Аудио №6: английский / AC3 / 5.1 / 48 kHz / 640 kbps / 16 bit (Оригинал)
General
Unique ID : 183123807533790948465688368693286897558 (0x89C45CC9420BF0E08567C48901018796)
Complete name : D:ФИЛЬМЫTupoj.i.eshhe.tupee.(1994).BDRip.1080p.[envy].mkv
Format : Matroska
Format version : Version 4 / Version 2
File size : 11.5 GiB
Duration : 1h 52mn
Overall bit rate : 14.6 Mbps
Movie name : Тупой и еще тупее.(1994).BDRip.1080p.[envy]
Encoded date : UTC 2013-09-21 08:27:18
Writing application : mkvmerge v6.4.1 ('Omega Point') built on Sep 16 2013 22:05:10
Writing library : libebml v1.3.0 + libmatroska v1.4.1

Video
ID : 1
Format : AVC
Format/Info : Advanced Video Codec
Format profile : High@L4.1
Format settings, CABAC : Yes
Format settings, ReFrames : 4 frames
Codec ID : V_MPEG4/ISO/AVC
Duration : 1h 52mn
Bit rate : 12.3 Mbps
Width : 1 920 pixels
Height : 1 078 pixels
Display aspect ratio : 16:9
Frame rate : 23.976 fps
Color space : YUV
Chroma subsampling : 4:2:0
Bit depth : 8 bits
Scan type : Progressive
Bits/(Pixel*Frame) : 0.249
Stream size : 9.49 GiB (82%)
Title : Тупой и еще тупее.(1994).BDRip.1080p.[envy]
Writing library : x264 core 138 r2358 9e941d1
Encoding settings : cabac=1 / ref=4 / deblock=1:-3:-3 / analyse=0x3:0x133 / me=umh / subme=11 / psy=1 / psy_rd=1.00:0.00 / mixed_ref=1 / me_range=32 / chroma_me=1 / trellis=2 / 8x8dct=1 / cqm=0 / deadzone=21,11 / fast_pskip=0 / chroma_qp_offset=-2 / threads=12 / lookahead_threads=1 / sliced_threads=0 / nr=0 / decimate=1 / interlaced=0 / bluray_compat=0 / constrained_intra=0 / bframes=6 / b_pyramid=2 / b_adapt=2 / b_bias=0 / direct=3 / weightb=1 / open_gop=0 / weightp=2 / keyint=240 / keyint_min=23 / scenecut=40 / intra_refresh=0 / rc=2pass / mbtree=0 / bitrate=12345 / ratetol=2.0 / qcomp=0.60 / qpmin=0 / qpmax=69 / qpstep=4 / cplxblur=20.0 / qblur=0.5 / ip_ratio=1.40 / pb_ratio=1.30 / aq=1:0.80
Language : English
Default : Yes
Forced : No

Audio #1
ID : 2
Format : AC-3
Format/Info : Audio Coding 3
Mode extension : CM (complete main)
Codec ID : A_AC3
Duration : 1h 52mn
Bit rate mode : Constant
Bit rate : 448 Kbps
Channel(s) : 6 channels
Channel positions : Front: L C R, Side: L R, LFE
Sampling rate : 48.0 KHz
Bit depth : 16 bits
Compression mode : Lossy
Stream size : 362 MiB (3%)
Title : Пётр Гланц
Language : Russian
Default : Yes
Forced : No

Audio #2
ID : 3
Format : AC-3
Format/Info : Audio Coding 3
Mode extension : CM (complete main)
Codec ID : A_AC3
Duration : 1h 52mn
Bit rate mode : Constant
Bit rate : 192 Kbps
Channel(s) : 2 channels
Channel positions : Front: L R
Sampling rate : 48.0 KHz
Bit depth : 16 bits
Compression mode : Lossy
Stream size : 155 MiB (1%)
Title : НТВ
Language : Russian
Default : No
Forced : No

Audio #3
ID : 4
Format : AC-3
Format/Info : Audio Coding 3
Mode extension : CM (complete main)
Codec ID : A_AC3
Duration : 1h 52mn
Bit rate mode : Constant
Bit rate : 192 Kbps
Channel(s) : 2 channels
Channel positions : Front: L R
Sampling rate : 48.0 KHz
Bit depth : 16 bits
Compression mode : Lossy
Stream size : 155 MiB (1%)
Title : С.Визгунов
Language : Russian
Default : No
Forced : No

Audio #4
ID : 5
Format : AC-3
Format/Info : Audio Coding 3
Mode extension : CM (complete main)
Codec ID : A_AC3
Duration : 1h 52mn
Bit rate mode : Constant
Bit rate : 192 Kbps
Channel(s) : 2 channels
Channel positions : Front: L R
Sampling rate : 48.0 KHz
Bit depth : 16 bits
Compression mode : Lossy
Stream size : 155 MiB (1%)
Title : Ю.Сербин
Language : Russian
Default : No
Forced : No

Audio #5
ID : 6
Format : AC-3
Format/Info : Audio Coding 3
Mode extension : CM (complete main)
Codec ID : A_AC3
Duration : 1h 52mn
Bit rate mode : Constant
Bit rate : 640 Kbps
Channel(s) : 6 channels
Channel positions : Front: L C R, Side: L R, LFE
Sampling rate : 48.0 KHz
Bit depth : 16 bits
Compression mode : Lossy
Stream size : 517 MiB (4%)
Title : А.Гаврилов
Language : Russian
Default : No
Forced : No

Audio #6
ID : 7
Format : AC-3
Format/Info : Audio Coding 3
Mode extension : CM (complete main)
Codec ID : A_AC3
Duration : 1h 52mn
Bit rate mode : Constant
Bit rate : 640 Kbps
Channel(s) : 6 channels
Channel positions : Front: L C R, Side: L R, LFE
Sampling rate : 48.0 KHz
Bit depth : 16 bits
Compression mode : Lossy
Stream size : 517 MiB (4%)
Title : Оригинал
Language : English
Default : No
Forced : No

Text #1
ID : 8
Format : UTF-8
Codec ID : S_TEXT/UTF8
Codec ID/Info : UTF-8 Plain Text
Title : Полные
Language : Russian
Default : No
Forced : No

Text #2
ID : 9
Format : UTF-8
Codec ID : S_TEXT/UTF8
Codec ID/Info : UTF-8 Plain Text
Title : Full
Language : English
Default : No
Forced : No

Menu
00:00:00.000 : :Chapter 01
00:06:37.230 : :Chapter 02
00:13:02.991 : :Chapter 03
00:17:19.747 : :Chapter 04
00:23:35.456 : :Chapter 05
00:35:57.697 : :Chapter 07
00:45:41.906 : :Chapter 08
00:54:49.495 : :Chapter 09
01:00:53.358 : :Chapter 10
01:06:31.863 : :Chapter 11
01:10:54.709 : :Chapter 12
01:17:35.025 : :Chapter 13
01:28:04.112 : :Chapter 14
01:34:38.298 : :Chapter 15
01:42:13.294 : :Chapter 16
pb.wtf



Скачать Тупой и еще тупее через торрент http://i5.imageban.ru/out/2013/09/21/0a35e91071ee4da652231bcb59b767c9.jpg Скачать фильм Тупой и еще тупее через торрент бесплантно в хорошем качестве Описание: Два полных придурка, Ллойд Крисмас и Харри Данн пытаются нагнать красивую девушку Мэри Суонсон, чтобы вручить ей потерянный ею ... 9.9 10 12
Info! Золотая раздача, скачанное не засчитывается.
Торрент: Зарегистрирован [2013-09-21 14:38] · скачан: 34 раз
Статус: √ проверено
Размер: 11.53 GB
Как cкачать? Как скачать Тупой и еще тупее через торрент | qTorrent



Последний раз редактировалось: Бумер (2013-09-21 14:53), всего редактировалось 2 раз(а)

28-11-2019 20:33  

Отключить всю рекламу на сайте

    Дорогой пользователь! Огромная просьба, поблагодарите релизера, оцените раздачу и оставьте свои комментарий, если Вы скачали Тупой и еще тупее через торрент бесплатно! Внесите свою лепту в развитие PiratBit!
    Комментировать посты могут только пользователи прошедшие не сложную регистрацию
    Показать сообщения:    

    Тупой и еще тупее через торрент
    Скачать бесплатно Тупой и еще тупее
    Тупой и еще тупее скачать торрент
    Тупой и еще тупее смотреть онлайн
    Cкачать фильм Тупой и еще тупее бесплатно
    Тупой и еще тупее скачать торрент в хорошем качестве
    Тупой и еще тупее смотреть онлайн бесплатно в хорошем качестве


    Вы не можете начинать темы
    Вы не можете отвечать на сообщения
    Вы не можете редактировать свои сообщения
    Вы не можете удалять свои сообщения
    Вы не можете голосовать в опросах
    Вы не можете прикреплять файлы к сообщениям
    Вы можете скачивать файлы