2 сезон

iTunes

MVO

1

2 сезон

iTunes

iTunes

1 сезон

RePack

30

Ultimate

ВАЖНО

ИГРА 18+

pack

RePack

MK11
pack

Легкие деньги

RePack

jed

RePack

fifa19

RePack

RDR2

RePack

NEED FOR SPEED™ PAYBACK

4 сезон

9 сезон

Бесстыжие 9 сезон

Все сериалы

все сериалы на PB.wtf

RePack

FAR CRY 5

Anonymous, добрый вечер, мы не успеваем собрать деньги на оплату серверов за декабрь и январь, помогите нам пожалуйста в это трудное время. В качестве благодарности мы отключим Вам всю рекламу на сайте (укажите свой ник в строку Ваше имя)!

×
  
Magnet ссылка

Лето. Пляж. Кино / Teen Beach Movie (Джеффри Хорнадэй / Jeffrey Hornaday) [2013, США, мюзикл, семейный, WEB-DLRip] Dub + Original Eng pb.wtf

Лето. Пляж. Кино через торрент pb.wtf

Размер: 1.37 GB | Добавлен: 7 лет 4 мес. назад | Торрент скачан:251 раз
Скачать  

22-09-2013 01:17 Лето. Пляж. Кино Скачать торрент  

Лето. Пляж. Кино / Teen Beach MovieГод выпуска: 2013
Страна: США
Жанр: мюзикл, семейный

Продолжительность: 01:35:01
Перевод: Профессиональный (полное дублирование)Канал Disney
Субтитры: Нет
Режиссер: Джеффри Хорнадэй / Jeffrey Hornaday
В ролях: Росс Линч (Brady), Майя Митчелл (McKenzie / Mack), Грэйс Фиппс (Lela), Гари Клэйтон (Tanner), Джон ДеЛюка (Butchy), Крисси Фит (Cheechee), Сюзанн Крайер (Aunt Antoinette), Бэрри Боствик (Big Poppa), Кевин Чэмберлин (Dr. Fusion), Стив Валентайн (Les Camembert), Джордан Фишер (Seacat), Кент Бойд (Rascal)
Описание:
Последний день лета подходит к концу, а поклонники сёрфинга Маккензи и ее друг Брейди никак не хотят уходить с пляжа. Под вечер они ловят огромную волну, которая переносит их не только в пространстве, но и во времени - на полстолетия назад! Здесь, в 60-х, друзья оказываются в центре противостояния двух шумных компаний - сёрферов и рокеров. Оказывается, всё, что происходит вокруг, - не что иное, как известный ретро-мюзикл. У Маккензи и Брейди есть только один шанс попасть обратно домой - вернуть музыкальную историю в прежнее русло. Для этого ребятам предстоит освоить язык песни и танца.
Рейтинг
kinopoisk.ru: 6.043 (70)
imdb.com: 6.10 (2249)
Качество: WEB-DLRip
Формат: AVI
Видео кодек: XviD
Аудио кодек: AC3
Видео: XviD, 720x400 (16:9), 1471 kbps, 23,976 fps, 0,213 bpp
Аудио №1: AC3 / 2.0 / 48 kHz / 192 kbps / 16 bit-рус
Аудио №2: AC3 / 5.1 / 48 kHz / 384 kbps / 16 bit- eng

General
Complete name : D:ТорентыTeen.Beach.Movie_2013.WEB-DLRip.avi
Format : AVI
Format/Info : Audio Video Interleave
File size : 1.37 GiB
Duration : 1h 35mn
Overall bit rate : 2 062 Kbps
Writing application : VirtualDubModRus 1.5.10.1 (build 2439/release)
Writing library : VirtualDubMod build 2439/release

Video
ID : 0
Format : MPEG-4 Visual
Format profile : Advanced Simple@L5
Format settings, BVOP : 2
Format settings, QPel : No
Format settings, GMC : No warppoints
Format settings, Matrix : Default (MPEG)
Codec ID : XVID
Codec ID/Hint : XviD
Duration : 1h 35mn
Bit rate : 1 472 Kbps
Width : 720 pixels
Height : 400 pixels
Display aspect ratio : 16:9
Frame rate : 23.976 fps
Color space : YUV
Chroma subsampling : 4:2:0
Bit depth : 8 bits
Scan type : Progressive
Compression mode : Lossy
Bits/(Pixel*Frame) : 0.213
Stream size : 1 000 MiB (71%)
Writing library : XviD 63

Audio #1
ID : 1
Format : AC-3
Format/Info : Audio Coding 3
Mode extension : CM (complete main)
Codec ID : 2000
Duration : 1h 34mn
Bit rate mode : Constant
Bit rate : 192 Kbps
Channel(s) : 2 channels
Channel positions : Front: L R
Sampling rate : 48.0 KHz
Bit depth : 16 bits
Compression mode : Lossy
Stream size : 130 MiB (9%)
Alignment : Split accross interleaves
Interleave, duration : 42 ms (1.00 video frame)
Interleave, preload duration : 500 ms

Audio #2
ID : 2
Format : AC-3
Format/Info : Audio Coding 3
Mode extension : CM (complete main)
Codec ID : 2000
Duration : 1h 35mn
Bit rate mode : Constant
Bit rate : 384 Kbps
Channel(s) : 6 channels
Channel positions : Front: L C R, Side: L R, LFE
Sampling rate : 48.0 KHz
Bit depth : 16 bits
Compression mode : Lossy
Stream size : 261 MiB (19%)
Alignment : Split accross interleaves
Interleave, duration : 42 ms (1.00 video frame)
Interleave, preload duration : 500 ms
pb.wtf



Скачать Лето. Пляж. Кино через торрент http://i1.imageban.ru/out/2013/09/22/eca3af74da2414505610cfd3a86cf846.jpg Скачать фильм Лето. Пляж. Кино через торрент бесплантно в хорошем качестве Описание: Последний день лета подходит к концу, а поклонники сёрфинга Маккензи и ее друг Брейди никак не хотят уходить с пляжа. Под вечер ... 9 10 9
Info! Золотая раздача, скачанное не засчитывается.
Торрент: Зарегистрирован [2013-09-22 01:17] · скачан: 251 раз
Статус: √ проверено
Размер: 1.37 GB
Как cкачать? Как скачать Лето. Пляж. Кино через торрент | UTorrent

28-11-2019 20:33  

Отключить всю рекламу на сайте

    Дорогой пользователь! Огромная просьба, поблагодарите релизера, оцените раздачу и оставьте свои комментарий, если Вы скачали Лето. Пляж. Кино через торрент бесплатно! Внесите свою лепту в развитие PiratBit!
    Комментировать посты могут только пользователи прошедшие не сложную регистрацию
    Показать сообщения:    

    Лето. Пляж. Кино через торрент
    Скачать бесплатно Лето. Пляж. Кино
    Лето. Пляж. Кино скачать торрент
    Лето. Пляж. Кино смотреть онлайн
    Cкачать фильм Лето. Пляж. Кино бесплатно
    Лето. Пляж. Кино скачать торрент в хорошем качестве
    Лето. Пляж. Кино смотреть онлайн бесплатно в хорошем качестве


    Вы не можете начинать темы
    Вы не можете отвечать на сообщения
    Вы не можете редактировать свои сообщения
    Вы не можете удалять свои сообщения
    Вы не можете голосовать в опросах
    Вы не можете прикреплять файлы к сообщениям
    Вы можете скачивать файлы