Ссылка на приватное зеркало нашего сайта всего за 1$. Внимание количество ограничено!!!

2 сезон

iTunes

1 сезон

1

iTunes

iTunes

iTunes

1 сезон

RePack

30

ИГРА 18+

pack

ВАЖНО

!!Акция!!

Alien_RageХит недели

RePack

MK11
pack

Забери бонус

RePack

jed

!!Акция!!

Alien_Rage

RePack

fifa19

RePack

Assassins Creed: Odyssey

RePack

NEED FOR SPEED™ PAYBACK

4 сезон

9 сезон

Бесстыжие 9 сезон

Все сериалы

все сериалы на PB.wtf

RePack

FAR CRY 5
  

Типа крутые легавые / Hot Fuzz (Эдгар Райт / Edgar Wright) [ 2007 , Великобритания, Франция, США , боевик, комедия , BDRip 1080р] Дублированный + Оригинал pb.wtf

Типа крутые легавые через торрент pb.wtf

Размер: 7.76 GB | Добавлен: 7 лет 1 мес. назад | Торрент скачан:47 раз
Скачать  

22-09-2013 04:45 Типа крутые легавые Скачать торрент  

Типа крутые легавые / Hot FuzzГод выпуска: 2007
Страна: Великобритания, Франция, США
Жанр: боевик, комедия

Продолжительность: 02:00:52
Перевод: Профессиональный (полное дублирование)
Оригинальный
Субтитры: русские, английские
Режиссер: Эдгар Райт / Edgar Wright
В ролях: Саймон Пегг, Мартин Фриман, Билл Найи, Джо Корниш, Тимоти Далтон, Билл Бэйли, Эрик Мэйсон, Билли Уайтлоу, Ник Фрост, Питер Уайт...

Описание: Главный лондонский полицейский, констебль Николас Эйнджел переведен из города в тихий сельский городок Сэндфорд. Он пытается привыкнуть к этой мирной, и на первый взгляд лишенной преступности жизни, а также к туповатому напарнику Дэнни Баттерману.
Однако серия ужасных происшествий потрясает городок, заставляя Эйнджела убедиться в том, что Сэндфорд - совсем не такой, каким кажется на первый взгляд. Мечты Дэнни о бурной, взрывоопасной, полной стрельбы и погонями жизни становятся все более и более реальными. Настало время для провинциальных полицейских вершить правосудие больших городов!

Качество: BDRip 1080р
Видео кодек: AVC
Аудио кодек: AC3
Видео: AVC, 1920x816 (2.35:1), 7914 kbps, 23,976 fps, 0,211 bpp
Аудио №1: русский / AC3 / 5.1 / 48 kHz / 640 kbps / 16 bit || Дубляж
Аудио №2: английский / AC3 / 5.1 / 48 kHz / 640 kbps / 16 bit оригинал
General
Unique ID : 192979464827084744621906769488526106638 (0x912E7E35003F6AFFA750E5740356E00E)
Complete name : D:ФИЛЬМЫТипа крутые легавые.2007.BDRip.1080p.Rus.Eng.mkv
Format : Matroska
Format version : Version 2
File size : 7.76 GiB
Duration : 2h 0mn
Overall bit rate : 9 187 Kbps
Movie name : Типа крутые легавые.2007
Encoded date : UTC 2013-09-21 16:05:37
Writing application : mkvmerge v5.8.0 ('No Sleep / Pillow') built on Sep 2 2012 15:37:04
Writing library : libebml v1.2.3 + libmatroska v1.3.0

Video
ID : 1
Format : AVC
Format/Info : Advanced Video Codec
Format profile : High@L4.1
Format settings, CABAC : Yes
Format settings, ReFrames : 5 frames
Codec ID : V_MPEG4/ISO/AVC
Duration : 2h 0mn
Bit rate : 7 914 Kbps
Width : 1 920 pixels
Height : 816 pixels
Display aspect ratio : 2.35:1
Frame rate : 23.976 fps
Color space : YUV
Chroma subsampling : 4:2:0
Bit depth : 8 bits
Scan type : Progressive
Bits/(Pixel*Frame) : 0.211
Stream size : 6.52 GiB (84%)
Title : Rip by Boriy
Writing library : x264 core 138 r2358 9e941d1
Encoding settings : cabac=1 / ref=5 / deblock=1:-3:-3 / analyse=0x3:0x113 / me=umh / subme=11 / psy=1 / psy_rd=1.00:0.00 / mixed_ref=1 / me_range=32 / chroma_me=1 / trellis=2 / 8x8dct=1 / cqm=0 / deadzone=21,11 / fast_pskip=0 / chroma_qp_offset=-2 / threads=12 / lookahead_threads=1 / sliced_threads=0 / nr=0 / decimate=0 / interlaced=0 / bluray_compat=0 / constrained_intra=0 / bframes=6 / b_pyramid=2 / b_adapt=2 / b_bias=0 / direct=3 / weightb=1 / open_gop=0 / weightp=2 / keyint=240 / keyint_min=23 / scenecut=40 / intra_refresh=0 / rc=2pass / mbtree=0 / bitrate=7914 / ratetol=1.0 / qcomp=0.60 / qpmin=0 / qpmax=69 / qpstep=4 / cplxblur=20.0 / qblur=0.5 / ip_ratio=1.40 / pb_ratio=1.30 / aq=1:0.90
Language : English
Default : Yes
Forced : No

Audio #1
ID : 2
Format : AC-3
Format/Info : Audio Coding 3
Mode extension : CM (complete main)
Codec ID : A_AC3
Duration : 2h 0mn
Bit rate mode : Constant
Bit rate : 640 Kbps
Channel(s) : 6 channels
Channel positions : Front: L C R, Side: L R, LFE
Sampling rate : 48.0 KHz
Bit depth : 16 bits
Compression mode : Lossy
Stream size : 553 MiB (7%)
Title : Дубляж
Language : Russian
Default : Yes
Forced : No

Audio #2
ID : 3
Format : AC-3
Format/Info : Audio Coding 3
Mode extension : CM (complete main)
Codec ID : A_AC3
Duration : 2h 0mn
Bit rate mode : Constant
Bit rate : 640 Kbps
Channel(s) : 6 channels
Channel positions : Front: L C R, Side: L R, LFE
Sampling rate : 48.0 KHz
Bit depth : 16 bits
Compression mode : Lossy
Stream size : 553 MiB (7%)
Title : Оригинал
Language : English
Default : No
Forced : No

Text #1
ID : 4
Format : UTF-8
Codec ID : S_TEXT/UTF8
Codec ID/Info : UTF-8 Plain Text
Language : Russian
Default : No
Forced : No

Text #2
ID : 5
Format : UTF-8
Codec ID : S_TEXT/UTF8
Codec ID/Info : UTF-8 Plain Text
Language : English
Default : No
Forced : No

Menu
00:00:00.000 : :Chapter 1
00:02:26.646 : :Chapter 2
00:05:23.614 : :Chapter 3
00:07:16.144 : :Chapter 4
00:12:10.354 : :Chapter 5
00:14:07.638 : :Chapter 6
00:21:39.589 : :Chapter 7
00:25:48.004 : :Chapter 8
00:28:46.683 : :Chapter 9
00:32:08.843 : :Chapter 10
00:35:28.000 : :Chapter 11
00:39:07.970 : :Chapter 12
00:42:12.196 : :Chapter 13
00:44:56.235 : :Chapter 14
00:49:26.505 : :Chapter 15
00:54:58.628 : :Chapter 16
01:01:45.284 : :Chapter 17
01:09:24.618 : :Chapter 18
01:16:58.905 : :Chapter 19
01:19:15.125 : :Chapter 20
01:28:59.542 : :Chapter 21
01:31:40.453 : :Chapter 22
01:41:14.193 : :Chapter 23
01:45:30.741 : :Chapter 24
01:50:49.351 : :Chapter 25
01:52:02.173 : :Chapter 26
01:53:54.786 : :Chapter 27
01:55:15.033 : :Chapter 28
02:00:52.411 : :Chapter 29
pb.wtf



Скачать Типа крутые легавые через торрент http://i1.imageban.ru/out/2013/09/22/5141564476357db1a486b3a77fa205c1.jpg Скачать фильм Типа крутые легавые через торрент бесплантно в хорошем качестве Описание: Главный лондонский полицейский, констебль Николас Эйнджел переведен из города в тихий сельский городок Сэндфорд. Он пытается ... 10 10 14
Info! Золотая раздача, скачанное не засчитывается.
Торрент: Зарегистрирован [2013-09-22 04:45] · скачан: 47 раз
Статус: √ проверено
Размер: 7.76 GB
Как cкачать? Как скачать Типа крутые легавые через торрент | qTorrent



Последний раз редактировалось: Бумер (2013-09-22 10:36), всего редактировалось 1 раз

28-11-2019 20:33  

Отключить всю рекламу на сайте

22-09-2013 05:07 Типа крутые легавые Скачать торрент  

ГАЙК
Берегись автомобиля post_625585 читаем пост внимательно.

Цитата:

Типа крутые легавые / Hot Fuzz (Эдгар Райт / Edgar Wright) [ 2007 , Великобритания, Франция, США , боевик, комедия , BDRip ] 1080р

Перевод укажите.pb.wtf



    Дорогой пользователь! Огромная просьба, поблагодарите релизера, оцените раздачу и оставьте свои комментарий, если Вы скачали Типа крутые легавые через торрент бесплатно! Внесите свою лепту в развитие PiratBit!
    Комментировать посты могут только пользователи прошедшие не сложную регистрацию
    Показать сообщения:    

    Типа крутые легавые через торрент
    Скачать бесплатно Типа крутые легавые
    Типа крутые легавые скачать торрент
    Типа крутые легавые смотреть онлайн
    Cкачать фильм Типа крутые легавые бесплатно
    Типа крутые легавые скачать торрент в хорошем качестве
    Типа крутые легавые смотреть онлайн бесплатно в хорошем качестве


    Вы не можете начинать темы
    Вы не можете отвечать на сообщения
    Вы не можете редактировать свои сообщения
    Вы не можете удалять свои сообщения
    Вы не можете голосовать в опросах
    Вы не можете прикреплять файлы к сообщениям
    Вы можете скачивать файлы