Всегда рабочее зеркало без VPN и Proxy просто перед .vidak.icu напиши любое слово или цифру, Пример http://7flp.vidak.icu

Лицензия

MVO

1 сезон

1

1 сезон

iTunes

1 сезон

13

1 сезон

Deluxe

pack

Рекомендуем

Repack

30

ВАЖНО

RePack

MK11

RePack

jed

RePack

fifa19

RePack

RDR2

RePack

NEED FOR SPEED™ PAYBACK

Кинопоиск HD

6 сезон

 Острые козырьки 6 сезон

Все сериалы

все сериалы на PB.wtf

RePack

FAR CRY 5
  
Magnet ссылка

Спирит: Душа прерий / Spirit: Stallion of the Cimarron (Келли Эсбёри, Лорна Кук) [2002 г., мультфильм, мелодрама, приключения, семейный, вестерн, DVDRip] [DUB] + Original song pb.wtf

Спирит: Душа прерий через торрент pb.wtf

Размер: 1.25 GB | Добавлен: 8 лет 10 мес. назад | Торрент скачан:476 раз
Смотреть онлайн Спирит: Душа прерий | Скачать    Ребята, помогите собрать деньги на оплату серверов!!!

22-09-2013 14:42 Спирит: Душа прерий Скачать торрент  

Спирит: Душа прерий / Spirit: Stallion of the Cimarron«Будь свободным»

Год выпуска: 2002
Страна: США
Жанр: мультфильм, мелодрама, приключения, семейный, вестерн
Продолжительность: 01:20:01
Перевод: Профессиональный (полное дублирование) + песни на оригинальном языке
Субтитры: нет

Режиссер: Келли Эсбёри / Kelly Asbury, Лорна Кук / Lorna Cook
Сценарий: Джон Фуско / John Fusco, Майкл Лакер / Michael Lucker

В ролях: Мэтт Дэймон (Spirit, озвучка), Джеймс Кромуэлл (The Colonel, озвучка), Дэниэл Студи (Little Creek, озвучка), Чоппер Бернет (Sgt. Adams, озвучка), Джеф ЛеБо (Murphy / Railroad Foreman, озвучка), Джон Рубано (Soldier, озвучка), Ричард МакГонагл (Bill, озвучка), Мэтт Левин (Joe, озвучка), Адам Пол (Pete, озвучка), Роберт Кайт (Jake, озвучка), Чарльз Нэпьер (Roy, озвучка), Мередит Уэллс (Little Indian Girl, озвучка)
Описание: Дикий, свободный, непокорный, летящий наперегонки с ветром к солнцу.. Жеребец, мустанг Спирит попадает в руки к людям, которые хотят сделать из него военную лошадь и уничтожить его родной край, проложив через него железную дорогу. С помощью друзей - индейца Лакоты и обретенной любви, кобыле по имени Гроза, Спирит возвращается домой... и путь его будет не прост.

MPAA: G - Нет возрастных ограничений


Качество: DVDRip
Формат: AVI
Видео кодек: XviD
Аудио кодек: AC3
Видео: 720x304 (2.35:1); 25 fps; XviD; 1784 Kbps; 0,326 bit/pixel
Аудио: 48 kHz; AC3; 6 ch; Front: L C R, Side: L R, LFE; 448 Kbps; CBR - DUB + Original song
Спирит — жеребец породы Кигер-мустангов. Это были лошади испанских конкистадоров, отбившиеся от табунов мустангов.
Компания Dreamworks использовала в качестве модели для рисования Спирита мустанга Доннера, купленного компанией за 50 000 $.
E:INTERNETSpirit_Stallion of the Cimarron.2002.DVDRip.[DUB+Eng songs].avi
General
Complete name : E:INTERNETSpirit_Stallion of the Cimarron.2002.DVDRip.[DUB+Eng songs].avi
Format : AVI
Format/Info : Audio Video Interleave
File size : 1.25 GiB
Duration : 1h 20mn
Overall bit rate : 2 242 Kbps
Writing application : VirtualDubMod 1.5.10.3 (build 2550/release)
Writing library : VirtualDubMod build 2550/release
Video #0
ID : 0
Format : MPEG-4 Visual
Format profile : Advanced [email protected]
Format settings, BVOP : 1
Format settings, QPel : No
Format settings, GMC : No warppoints
Format settings, Matrix : Custom
Codec ID : XVID
Codec ID/Hint : XviD
Duration : 1h 20mn
Bit rate : 1 785 Kbps
Width : 720 pixels
Height : 304 pixels
Display aspect ratio : 2.35:1
Frame rate : 25.000 fps
Color space : YUV
Chroma subsampling : 4:2:0
Bit depth : 8 bits
Scan type : Progressive
Compression mode : Lossy
Bits/(Pixel*Frame) : 0.326
Stream size : 1 022 MiB (80%)
Writing library : XviD 1.2.1 (UTC 2008-12-04)
Audio #1
ID : 1
Format : AC-3
Format/Info : Audio Coding 3
Mode extension : CM (complete main)
Format settings, Endianness : Big
Codec ID : 2000
Duration : 1h 20mn
Bit rate mode : Constant
Bit rate : 448 Kbps
Channel(s) : 6 channels
Channel positions : Front: L C R, Side: L R, LFE
Sampling rate : 48.0 KHz
Bit depth : 16 bits
Compression mode : Lossy
Stream size : 256 MiB (20%)
Alignment : Split accross interleaves
Interleave, duration : 40 ms (1.00 video frame)
Interleave, preload duration : 500 ms
pb.wtf



Скачать Спирит: Душа прерий через торрент http://s014.radikal.ru/i327/1309/5e/f6a3b9a0b890.jpg Скачать, смотреть онлайн Спирит: Душа прерий бесплантно в хорошем качестве Описание: Дикий, свободный, непокорный, летящий наперегонки с ветром к солнцу.. Жеребец, мустанг Спирит попадает в руки к людям, которые ... 9.9 10 19
Info! Золотая раздача, скачанное не засчитывается.
Торрент: Зарегистрирован [2013-09-22 14:42] · скачан: 476 раз
Статус: √ проверено
Размер: 1.25 GB
Как cкачать? Как скачать Спирит: Душа прерий через торрент | UTorrent

28-11-2019 20:33  

Отключить вcю реклaмy на сайте

    Дорогой пользователь! Огромная просьба, поблагодарите релизера, оцените раздачу и оставьте свои комментарий, если Вы скачали Спирит: Душа прерий через торрент бесплатно!
    Комментировать посты могут только пользователи прошедшие не сложную регистрацию
    Показать сообщения:    

    Спирит: Душа прерий через торрент
    Скачать бесплатно Спирит: Душа прерий
    Спирит: Душа прерий скачать торрент
    Спирит: Душа прерий смотреть онлайн
    Cкачать фильм Спирит: Душа прерий бесплатно
    Спирит: Душа прерий скачать торрент в хорошем качестве
    Спирит: Душа прерий смотреть онлайн бесплатно в хорошем качестве


    Вы не можете начинать темы
    Вы не можете отвечать на сообщения
    Вы не можете редактировать свои сообщения
    Вы не можете удалять свои сообщения
    Вы не можете голосовать в опросах
    Вы не можете прикреплять файлы к сообщениям
    Вы можете скачивать файлы