Ссылка на приватное зеркало нашего сайта всего за 1$. Внимание количество ограничено!!!

2 сезон

iTunes

1 сезон

1

2 сезон

2 сезон

iTunes

1 сезон

RePack

30

Ultimate

ВАЖНО

ИГРА 18+

pack

RePack

MK11
pack

Забери бонус

RePack

jed

!!Акция!!

Alien_Rage

RePack

fifa19

RePack

Assassins Creed: Odyssey

RePack

NEED FOR SPEED™ PAYBACK

4 сезон

9 сезон

Бесстыжие 9 сезон

Все сериалы

все сериалы на PB.wtf

RePack

FAR CRY 5
  

Быстрый и мертвый / The Quick and the Dead (Сэм Рэйми / Sam Raimi) [1995, США, Япония, вестерн, BDRemux 1080p] DUB + MVO + Sub rus + eng + original eng pb.wtf

Быстрый и мертвый через торрент pb.wtf

Размер: 24.73 GB | Добавлен: 7 лет 2 мес. назад | Торрент скачан:54 раза
Скачать  

22-09-2013 16:46 Быстрый и мертвый Скачать торрент  

Быстрый и мертвый / The Quick and the Dead

«Вы не можете игнорировать ее. Вы не можете победить ее. Вы не можете сопротивляться ей. Вы не можете выиграть....»

  • Год выпуска:1995
  • Страна:США, Япония
  • Жанр:боевик, триллер, вестерн

  • Продолжительность: 01:47:46
  • Перевод:Профессиональный (полное дублирование)Сони/ВидеоСервис+Профессиональный (многоголосый закадровый) ВидеоСервис+Оригинал

  • Субтитры: русские (SRT), английские (PGS/SRT)
    • Режиссер:Сэм Рэйми / Sam Raimi
    • Сценарий: Саймон Мур / Simon Moore
    • Продюсер: Джошуа Донен / Joshua Donen, Патрик Марки / Patrick Markey, Аллен Шапиро / Allen Shapiro, Чак Биндер / Chuck Binder, Тоби Джаффе / Toby Jaffe

  • В ролях: Шэрон Стоун /Sharon Stone/, Джин Хэкмен /Gene Hackman/, Рассел Кроу /Russell Crowe/, Леонардо ДиКаприо /Leonardo DiCaprio/, Тобин Белл /Tobin Bell/ («Пила»), Робертс Блоссом /Roberts Blossom/, Кевин Конуэй /Kevin Conway/, Кит Дэвид /Keith David/, Лэнс Хенриксен /Lance Henriksen/, Пэт Хингл /Pat Hingle/

    • Описание:
      Пустыня, и посреди нее - маленький грязный городок. Здесь только женщины и больные не носят кобуры на поясе. В городе хозяйничает Джон Ирод - жестокий и хладнокровный человек. Все его боятся, и каждая собака его знает. Если он разрешил тебе - ты можешь жить.
      Но однажды на горизонте появляется незнакомый всадник. Он въезжает в город и медленно движется по главной улице. Но, вот незадача: это не он, а она - таинственная женщина-ковбой. Никто еще не догадывается, что появление Эллен изменит жизнь всего городка...


    • Качество:BD Remux
    • Формат: MKV
    • Видео кодек:AVC
    • Аудио кодек:DTS-HD /AC3
    • Видео: AVC, 1920x1080 (16:9), 28820 kbps, 23,976 fps, 0,580 bpp
    • Аудио №1: английский / DTS-HD / 5.1 / 48 kHz / 2511 kbps / 24 bit (Core: 5.1 / 48 kHz / 1510 kbps / 24 bit)
      Аудио №2: русский / AC3 / 5.1 / 48 kHz / 640 kbps / 16 bit || DUB CEE+R5
      Аудио №3: русский / AC3 / 2.0 / 48 kHz / 224 kbps / 16 bit || MVO R5

    General
    Unique ID : 207006953383553165445560476907584947722 (0x9BBC16CA218F8D5F9501C33DBC5D060A)
    Complete name : D:ТорентыThe Quick and the Dead.mkv
    Format : Matroska
    Format version : Version 2
    File size : 24.7 GiB
    Duration : 1h 47mn
    Overall bit rate mode : Variable
    Overall bit rate : 32.8 Mbps
    Encoded date : UTC 2011-06-13 07:44:05
    Writing application : mkvmerge v4.8.0 ('I Got The...') built on May 24 2011 03:12:58
    Writing library : libebml v1.2.0 + libmatroska v1.1.0

    Video
    ID : 1
    Format : AVC
    Format/Info : Advanced Video Codec
    Format profile : High@L4.1
    Format settings, CABAC : Yes
    Format settings, ReFrames : 2 frames
    Format settings, GOP : M=1, N=10
    Codec ID : V_MPEG4/ISO/AVC
    Duration : 1h 47mn
    Bit rate mode : Variable
    Bit rate : 28.8 Mbps
    Width : 1 920 pixels
    Height : 1 080 pixels
    Display aspect ratio : 16:9
    Frame rate : 23.976 fps
    Color space : YUV
    Chroma subsampling : 4:2:0
    Bit depth : 8 bits
    Scan type : Progressive
    Bits/(Pixel*Frame) : 0.580
    Stream size : 21.7 GiB (88%)
    Title : MPEG-4 AVC Video / 27954 kbps / 1080p / 23,976 fps / 16:9 / High Profile 4.1
    Default : Yes
    Forced : No

    Audio #1
    ID : 2
    Format : DTS
    Format/Info : Digital Theater Systems
    Format profile : MA / Core
    Codec ID : A_DTS
    Duration : 1h 47mn
    Bit rate mode : Variable
    Bit rate : 2 512 Kbps / 1 510 Kbps
    Channel(s) : 6 channels
    Channel positions : Front: L C R, Side: L R, LFE
    Sampling rate : 48.0 KHz
    Bit depth : 24 bits
    Compression mode : Lossless / Lossy
    Title : DTS-HD Master Audio 5.1 / 48 kHz / 4007 kbps / 24-bit (DTS Core: 5.1 / 48 kHz / 1509 kbps / 24-bit)
    Language : English
    Default : Yes
    Forced : No

    Audio #2
    ID : 3
    Format : AC-3
    Format/Info : Audio Coding 3
    Mode extension : CM (complete main)
    Codec ID : A_AC3
    Duration : 1h 47mn
    Bit rate mode : Constant
    Bit rate : 640 Kbps
    Channel(s) : 6 channels
    Channel positions : Front: L C R, Side: L R, LFE
    Sampling rate : 48.0 KHz
    Bit depth : 16 bits
    Compression mode : Lossy
    Stream size : 493 MiB (2%)
    Title : DUB CEE+R5 Dolby Digital Audio 5.1 / 48 kHz / 640 kbps
    Language : Russian
    Default : No
    Forced : No

    Audio #3
    ID : 4
    Format : AC-3
    Format/Info : Audio Coding 3
    Mode extension : CM (complete main)
    Codec ID : A_AC3
    Duration : 1h 47mn
    Bit rate mode : Constant
    Bit rate : 224 Kbps
    Channel(s) : 2 channels
    Channel positions : Front: L R
    Sampling rate : 48.0 KHz
    Bit depth : 16 bits
    Compression mode : Lossy
    Stream size : 173 MiB (1%)
    Title : MVO R5 Dolby Digital Audio 2.0 / 48 kHz / 224 kbps
    Language : Russian
    Default : No
    Forced : No

    Text #1
    ID : 5
    Format : PGS
    Codec ID : S_HDMV/PGS
    Codec ID/Info : The same subtitle format used on BDs/HD-DVDs
    Title : PGS
    Language : English
    Default : Yes
    Forced : No

    Text #2
    ID : 6
    Format : UTF-8
    Codec ID : S_TEXT/UTF8
    Codec ID/Info : UTF-8 Plain Text
    Language : English
    Default : No
    Forced : No

    Text #3
    ID : 7
    Format : UTF-8
    Codec ID : S_TEXT/UTF8
    Codec ID/Info : UTF-8 Plain Text
    Title : R5
    Language : Russian
    Default : No
    Forced : No

    Menu
    00:00:00.000 : :00:00:00.000
    00:07:20.315 : :00:07:20.315
    00:15:25.174 : :00:15:25.174
    00:20:39.530 : :00:20:39.530
    00:28:14.151 : :00:28:14.151
    00:34:40.620 : :00:34:40.620
    00:40:48.905 : :00:40:48.905
    00:47:40.357 : :00:47:40.357
    00:53:18.946 : :00:53:18.946
    00:59:50.754 : :00:59:50.754
    01:06:26.566 : :01:06:26.566
    01:12:24.924 : :01:12:24.924
    01:16:25.331 : :01:16:25.331
    01:24:02.621 : :01:24:02.621
    01:33:44.244 : :01:33:44.244
    01:38:36.285 : :01:38:36.285
    • Сексуальная сцена с участием Эллен (Шэрон Стоун) и Курта (Рассел Кроу) была снята, однако в итоге Стоун и режиссер ленты Сэм Рэйми решили, что фильм вполне может обойтись и без этого эпизода. Примечательно, что этот эпизод был включен в версию, предназначенную для зарубежного проката.
    • Шэрон Стоун так хотела, чтобы в фильме снимался Леонардо Ди Каприо, что дала деньги на оплату его гонорара.
    • Рассела Кроу тоже пригласила Шэрон Стоун. Студия поначалу скептически отнеслась к ее выбору, поскольку этот австралийский актер был тогда еще практически не знаком американскому зрителю.
    • Все актеры, принимавшие участие в сценах перестрелок, прошли специальный инструктаж, обучаясь мгновенно выхватывать револьвер. А поскольку Джин Хэкман был занят на съемках меньше других, у него было больше времени для тренировок. В результате он стал быстрее всех проделывать эту операцию.
    • Во время съемок в Аризоне Шэрон Стоун уговорила Рассела провести рождественское утро вместе с ней в одном из отделений Армии Спасения, где они раздавали еду бедным. После этого они побывали в приюте для детей, которые подверглись домашнему насилию.
    • На данный момент это единственный фильм Сэма Рейми, в котором не появляется жёлтый «Олдсмобиль» 1973 года выпуска.
    • Из фильма была вырезана сцена свадьбы Кида и Мэтти Силк.
    • еще 4 факта

    © Оформление by Vetal
    pb.wtf



  • Скачать Быстрый и мертвый через торрент http://i58.fastpic.ru/big/2013/0922/31/4683bcd4960801b02604b79f43d30631.png Скачать фильм Быстрый и мертвый через торрент бесплантно в хорошем качестве Описание:Пустыня, и посреди нее - маленький грязный городок. Здесь только женщины и больные не носят кобуры на поясе. В городе хозяйничает ... 10 10 5
    Info! Золотая раздача, скачанное не засчитывается.
    Торрент: Зарегистрирован [2013-09-22 16:46] · скачан: 54 раз
    Статус: √ проверено
    Размер: 24.73 GB
    Как cкачать? Как скачать Быстрый и мертвый через торрент | qTorrent

    28-11-2019 20:33  

    Отключить всю рекламу на сайте

    23-09-2013 10:48 Быстрый и мертвый Скачать торрент  

    хорошее кино!pb.wtf



      Дорогой пользователь! Огромная просьба, поблагодарите релизера, оцените раздачу и оставьте свои комментарий, если Вы скачали Быстрый и мертвый через торрент бесплатно! Внесите свою лепту в развитие PiratBit!
      Комментировать посты могут только пользователи прошедшие не сложную регистрацию
      Показать сообщения:    

      Быстрый и мертвый через торрент
      Скачать бесплатно Быстрый и мертвый
      Быстрый и мертвый скачать торрент
      Быстрый и мертвый смотреть онлайн
      Cкачать фильм Быстрый и мертвый бесплатно
      Быстрый и мертвый скачать торрент в хорошем качестве
      Быстрый и мертвый смотреть онлайн бесплатно в хорошем качестве


      Вы не можете начинать темы
      Вы не можете отвечать на сообщения
      Вы не можете редактировать свои сообщения
      Вы не можете удалять свои сообщения
      Вы не можете голосовать в опросах
      Вы не можете прикреплять файлы к сообщениям
      Вы можете скачивать файлы